<?xml version="1.0" standalone="no"?>
<!DOCTYPE svg PUBLIC "-//W3C//DTD SVG 1.1//EN" "http://www.w3.org/Graphics/SVG/1.1/DTD/svg11.dtd" >
<svg xmlns="http://www.w3.org/2000/svg" xmlns:xlink="http://www.w3.org/1999/xlink" version="1.1">
<metadata>
Created by FontForge 20201107 at Thu Feb 17 17:45:12 2022
 By Unknown
Copyright (c) 2018 Commercial Type, Inc.. All rights reserved.
</metadata>
<defs>
<font id="CanelaText-Bold" horiz-adv-x="285" >
  <font-face 
    font-family="Canela Text Bold Trial"
    font-weight="700"
    font-stretch="normal"
    units-per-em="1000"
    panose-1="0 0 0 0 0 0 0 0 0 0"
    ascent="779"
    descent="-221"
    x-height="517"
    cap-height="732"
    bbox="-33 -273 1094 806"
    underline-thickness="40"
    underline-position="-60"
    unicode-range="U+0020-201D"
  />
<missing-glyph horiz-adv-x="204" 
 />
    <glyph glyph-name=".notdef" horiz-adv-x="204" 
 />
    <glyph glyph-name=".null" horiz-adv-x="0" 
 />
    <glyph glyph-name="nonmarkingreturn" horiz-adv-x="333" 
 />
    <glyph glyph-name="space" unicode=" " horiz-adv-x="240" 
 />
    <glyph glyph-name="exclam" unicode="!" horiz-adv-x="261" 
d="M223 732v-2l-70 -481h-44l-70 481v2h184zM131 -5q-37 0 -63 26.5t-26 62.5t26 62.5t63 26.5q36 0 62 -26.5t26 -62.5t-26 -62.5t-62 -26.5z" />
    <glyph glyph-name="quotedbl" unicode="&#x22;" horiz-adv-x="395" 
d="M95 465l-63 267h148l-63 -267h-22zM278 465l-63 267h148l-63 -267h-22z" />
    <glyph glyph-name="quotesingle" unicode="'" horiz-adv-x="212" 
d="M95 465l-63 267h148l-63 -267h-22z" />
    <glyph glyph-name="comma" unicode="," 
d="M47 -147l-13 20q32 27 51.5 64t19.5 65q0 35 -57 94v3l124 85q27 -17 44.5 -46t17.5 -60q0 -117 -187 -225z" />
    <glyph glyph-name="hyphen" unicode="-" horiz-adv-x="342" 
d="M34 229v109h274v-109h-274z" />
    <glyph glyph-name="period" unicode="." 
d="M143 -5q-37 0 -63 26.5t-26 62.5t26 62.5t63 26.5q36 0 62 -26.5t26 -62.5t-26 -62.5t-62 -26.5z" />
    <glyph glyph-name="zero" unicode="0" horiz-adv-x="631" 
d="M315 -14q-118 0 -203 82.5t-84 192.5t86 193.5t201 83.5q117 0 202.5 -83.5t85.5 -193.5t-85 -192.5t-203 -82.5zM315 25q111 0 111 236q0 237 -111 237q-110 0 -110 -237q0 -236 110 -236z" />
    <glyph glyph-name="one" unicode="1" horiz-adv-x="367" 
d="M329 0h-293v2q38 38 50.5 74t12.5 107v233h-87v24l242 100h12v-357q0 -72 12.5 -107.5t50.5 -73.5v-2z" />
    <glyph glyph-name="two" unicode="2" horiz-adv-x="517" 
d="M438 0h-430v21q253 161 253 356q0 58 -20.5 89.5t-56.5 31.5t-69 -36.5t-76 -109.5l-18 6l23 144q61 36 168 36q106 0 163.5 -38.5t57.5 -115.5q0 -145 -228 -248h157q41 0 60.5 13t43.5 50l17 -7z" />
    <glyph glyph-name="three" unicode="3" horiz-adv-x="505" 
d="M113 142v18q90 28 140 86.5t50 138.5q0 55 -23.5 84t-60.5 29q-40 0 -74.5 -35t-83.5 -116l-17 6l23 150q77 35 170 35q95 0 154 -38.5t59 -112.5q0 -117 -133 -172q69 -34 111 -92.5t42 -133.5q0 -110 -81 -179.5t-202 -69.5q-57 0 -103 14t-68 30l-28 181l17 6
q64 -105 103.5 -148.5t91.5 -43.5q54 0 87.5 44t33.5 108q0 83 -59 138t-149 73z" />
    <glyph glyph-name="four" unicode="4" horiz-adv-x="565" 
d="M268 -207v207h-280v19l427 518h22v-452h117l-19 -85h-98v-207h-169zM96 85h172v210z" />
    <glyph glyph-name="five" unicode="5" horiz-adv-x="488" 
d="M44 167l117 353h325l-43 -136h-287l-24 -72q141 -32 218 -107.5t77 -194.5q0 -122 -75 -196t-189 -74q-57 0 -103 15t-68 32l-20 176l18 6q60 -105 98 -148t90 -43q53 0 87.5 42t34.5 111q0 177 -256 236z" />
    <glyph glyph-name="six" unicode="6" horiz-adv-x="617" 
d="M549 775q-230 -66 -310 -294q37 41 111 41q103 0 170 -70.5t67 -178.5q0 -118 -81 -202.5t-198 -84.5q-122 0 -197.5 89.5t-75.5 221.5q0 56 15 112t52.5 116.5t93.5 111t145.5 94t201.5 66.5zM203 263q0 -47 5.5 -87.5t18 -75.5t34.5 -55t53 -20q105 0 105 241
q0 109 -26.5 155t-77.5 46q-68 0 -98 -67v1q-14 -66 -14 -138z" />
    <glyph glyph-name="seven" unicode="7" horiz-adv-x="509" 
d="M226 -260h-177q49 137 115 264.5t115.5 202t124.5 177.5h-378l28 136h446v-11q-162 -307 -274 -769z" />
    <glyph glyph-name="eight" unicode="8" horiz-adv-x="553" 
d="M287 792q95 0 155 -47t60 -119q0 -51 -35.5 -93.5t-109.5 -67.5q76 -49 121.5 -109t45.5 -145q0 -106 -74 -165.5t-183 -59.5q-107 0 -173 54.5t-66 140.5q0 66 39.5 115.5t101.5 77.5q-117 84 -117 208q0 99 66.5 154.5t168.5 55.5zM317 489q1 -1 4 -2.5l5 -2.5
q60 44 60 141q0 60 -27.5 94t-78.5 34q-46 0 -73 -27.5t-27 -71.5q0 -53 35 -89t102 -76zM152 183q0 -73 30.5 -115.5t88.5 -42.5q52 0 83.5 33.5t31.5 88.5q0 35 -12.5 63.5t-40 53t-49 39t-62.5 37.5q-3 2 -9 5.5t-9 5.5q-52 -68 -52 -168z" />
    <glyph glyph-name="nine" unicode="9" horiz-adv-x="617" 
d="M69 -252q229 66 310 295q-39 -41 -112 -41q-103 0 -170 71t-67 178q0 118 81 202.5t198 84.5q122 0 197.5 -89.5t75.5 -221.5q0 -56 -15 -112t-52.5 -116.5t-93.5 -111.5t-145.5 -94t-201.5 -66zM198 258q0 -109 26.5 -155t77.5 -46q68 0 98 66q14 66 14 138
q0 101 -26 169t-84 68q-106 0 -106 -240z" />
    <glyph glyph-name="question" unicode="?" horiz-adv-x="456" 
d="M178 249h-43q3 44 23.5 85t43.5 69.5t41.5 76t18.5 104.5q0 56 -21 88.5t-52 32.5q-34 0 -66 -38t-77 -114l-19 5l28 165q63 24 157 24q107 0 166.5 -40t59.5 -120q0 -52 -22.5 -93t-56.5 -68.5t-69.5 -52.5t-67.5 -56.5t-44 -67.5zM161 -5q-35 0 -61 26t-26 62
q0 35 26 61t61 26q37 0 62.5 -26t25.5 -61q0 -36 -25.5 -62t-62.5 -26z" />
    <glyph glyph-name="A" unicode="A" horiz-adv-x="738" 
d="M214 0h-206v2q60 56 108 187l197 546h123l199 -551q44 -123 95 -182v-2h-302v2q61 76 18 200l-20 57h-237l-12 -32q-58 -155 37 -225v-2zM204 303h207l-102 291z" />
    <glyph glyph-name="B" unicode="B" horiz-adv-x="697" 
d="M671 195q0 -92 -68.5 -143.5t-210.5 -51.5h-349v2q27 62 36.5 106t9.5 119v278q0 75 -9.5 119t-36.5 106v2q27 0 176.5 0.5t160.5 0.5q257 1 257 -168q0 -141 -154 -182q188 -34 188 -188zM269 402h66q66 1 97.5 44.5t31.5 105.5t-31.5 100.5t-102.5 38.5q-23 0 -61 -4
v-285zM333 40q76 0 113 43t37 116q0 160 -144 160h-70v-314q32 -5 64 -5z" />
    <glyph glyph-name="C" unicode="C" horiz-adv-x="780" 
d="M730 271l-22 -211q-20 -14 -48.5 -28.5t-91 -31t-128.5 -16.5q-177 0 -295 105.5t-118 267.5q0 164 120.5 277t301.5 113q120 0 255 -37l22 -198l-20 -6q-83 113 -138 155.5t-128 42.5q-217 0 -217 -347q0 -155 56.5 -242.5t158.5 -87.5q44 0 80.5 16.5t70 53.5t58.5 75
t62 104z" />
    <glyph glyph-name="D" unicode="D" horiz-adv-x="812" 
d="M43 0v2q27 59 36.5 101t9.5 114v298q0 72 -9.5 114t-36.5 101v2q57 0 144.5 2t157.5 2q206 0 323 -95t117 -271q0 -177 -115 -273.5t-325 -96.5h-302zM589 361q0 173 -55 251.5t-184 78.5q-34 0 -81 -5v-637q41 -4 91 -4q128 1 178.5 79t50.5 237z" />
    <glyph glyph-name="E" unicode="E" horiz-adv-x="693" 
d="M43 0v2q26 64 36 107t10 113v288q0 70 -10 113t-36 107v2h528l40 -206l-21 -7q-9 9 -54.5 60t-76.5 77t-55 28l-135 9v-303h61q25 0 53.5 19.5t43 36t36.5 44.5h21v-247h-21q-49 62 -76 82q-30 22 -59 22h-59v-308l152 8q45 2 105.5 65.5t115.5 141.5l21 -7l-55 -247
h-565z" />
    <glyph glyph-name="F" unicode="F" horiz-adv-x="641" 
d="M315 2v-2h-272v2q27 62 36.5 106t9.5 119v278q0 75 -9.5 119t-36.5 106v2h537l41 -210l-21 -6q-7 7 -55 60.5t-78.5 80t-52.5 27.5l-145 10v-301h67q20 0 40 9t40 28t30 30.5t27 32.5h17v-247h-17q-18 23 -27 33.5t-29.5 31t-40.5 30t-41 9.5h-66v-124q0 -73 10 -117.5
t36 -106.5z" />
    <glyph glyph-name="G" unicode="G" horiz-adv-x="814" 
d="M746 97q-143 -113 -320 -113q-180 0 -289.5 104t-109.5 269q0 169 115.5 279.5t317.5 110.5q105 0 248 -37l23 -202l-21 -6q-83 113 -139 157.5t-127 44.5q-115 0 -168 -92.5t-53 -253.5q0 -331 207 -331q69 0 113.5 34.5t46.5 103.5q1 50 -12.5 88.5t-44.5 82.5v2h258
v-2q-45 -94 -45 -209v-30z" />
    <glyph glyph-name="H" unicode="H" horiz-adv-x="827" 
d="M43 0v2q27 62 36.5 106t9.5 119v278q0 75 -9.5 119t-36.5 106v2h273v-2q-27 -63 -37 -107t-10 -117v-111h288v110q0 75 -9.5 119t-36.5 106v2h273v-2q-26 -63 -36 -107t-10 -117v-280q0 -73 10 -117t36 -107v-2h-273v2q27 62 36.5 106t9.5 119v125h-288v-126
q0 -73 10 -117t37 -107v-2h-273z" />
    <glyph glyph-name="I" unicode="I" horiz-adv-x="359" 
d="M43 0v2q27 62 36.5 106t9.5 119v278q0 75 -9.5 119t-36.5 106v2h273v-2q-27 -63 -37 -107t-10 -117v-280q0 -73 10 -117t37 -107v-2h-273z" />
    <glyph glyph-name="J" unicode="J" horiz-adv-x="537" 
d="M458 225q0 -116 -72 -178.5t-196 -62.5q-82 0 -143 26l-17 214l21 7q85 -139 107 -165q32 -39 59 -39t44 34t17 98v346q0 76 -10 119.5t-37 105.5v2h272v-2q-26 -62 -35.5 -106.5t-9.5 -117.5v-281z" />
    <glyph glyph-name="K" unicode="K" horiz-adv-x="784" 
d="M776 0h-253l-235 361l171 190q97 103 39 179v2h248v-2q-122 -57 -223 -167l-85 -97l203 -309q73 -112 135 -155v-2zM43 0v2q27 62 36.5 106t9.5 119v278q0 75 -9.5 119t-36.5 106v2h273v-2q-27 -63 -37 -107t-10 -117v-280q0 -73 10 -117t37 -107v-2h-273z" />
    <glyph glyph-name="L" unicode="L" horiz-adv-x="644" 
d="M269 506v-464l122 7q46 2 106.5 66.5t106.5 137.5l20 -6l-55 -247h-521v2q23 57 32 98.5t9 110.5v294q0 75 -9.5 119t-36.5 106v2h272v-2q-26 -62 -36 -106.5t-10 -117.5z" />
    <glyph glyph-name="M" unicode="M" horiz-adv-x="962" 
d="M640 0v2q27 62 36.5 106t9.5 119v359l-248 -564h-45l-252 572l3 -362q1 -74 21.5 -120t75.5 -110v-2h-224v2q45 64 61.5 109t16.5 122v325q-4 55 -22 89.5t-62 82.5v2h262l213 -487l214 487h250v-2q-49 -53 -66.5 -91.5t-17.5 -107.5v-305q0 -73 10 -117t36 -107v-2h-272
z" />
    <glyph glyph-name="N" unicode="N" horiz-adv-x="759" 
d="M609 -3l-468 577l4 -342q0 -74 19 -119.5t68 -110.5v-2h-222v2q49 64 67 109t18 122v326q-4 55 -21.5 89.5t-61.5 81.5v2h237l369 -457l-2 223q-1 78 -18.5 123t-66.5 109v2h218v-2q-47 -64 -65 -110t-18 -120v-499z" />
    <glyph glyph-name="O" unicode="O" horiz-adv-x="835" 
d="M417 -16q-160 0 -275 110.5t-115 269.5q0 161 115 272t275 111q161 0 276 -111t115 -272q0 -159 -115 -269.5t-276 -110.5zM417 27q95 0 145 87.5t50 249.5q0 164 -49.5 252t-145.5 88t-145 -88.5t-49 -251.5q0 -162 49.5 -249.5t144.5 -87.5z" />
    <glyph glyph-name="P" unicode="P" horiz-adv-x="657" 
d="M89 227v278q0 75 -9.5 119t-36.5 106v2h301q160 0 228 -55t68 -152q0 -108 -77.5 -175t-239.5 -67h-54v-57q0 -76 9.5 -121t37.5 -103v-2h-273v2q27 62 36.5 106t9.5 119zM299 689q-19 0 -30 -1v-361h28q83 0 120.5 56.5t37.5 141.5q0 164 -156 164z" />
    <glyph glyph-name="Q" unicode="Q" horiz-adv-x="835" 
d="M798 -162q-49 -21 -119 -21q-79 0 -145.5 30t-101 65t-55.5 74q-147 14 -248.5 121.5t-101.5 256.5q0 161 115 272t275 111q161 0 276 -111t115 -272q0 -152 -106 -260.5t-258 -118.5q84 -41 201 -41t199 24zM417 27q95 0 145 87.5t50 249.5q0 164 -49.5 252t-145.5 88
t-145 -88.5t-49 -251.5q0 -162 49.5 -249.5t144.5 -87.5z" />
    <glyph glyph-name="R" unicode="R" horiz-adv-x="743" 
d="M305 2v-2h-262v2q23 57 32 98.5t9 110.5v310q0 69 -8.5 110t-32.5 99v2h316q153 0 219.5 -47.5t66.5 -134.5q0 -140 -127 -197l99 -200q33 -65 55.5 -95t62.5 -54v-4h-242l-155 323h-74v-112q0 -69 8.5 -111t32.5 -98zM314 690q-30 0 -50 -1v-323h55q76 0 108.5 52
t32.5 127q0 145 -146 145z" />
    <glyph glyph-name="S" unicode="S" horiz-adv-x="602" 
d="M493 723l25 -180l-21 -7q-56 89 -105.5 128.5t-109.5 39.5q-46 0 -73 -22t-27 -60q0 -12 2.5 -23.5t10 -22t13.5 -18.5t19.5 -18t21.5 -16t26.5 -16t27 -14t30.5 -15l30 -15q46 -23 75 -41t62.5 -48t49.5 -70.5t16 -91.5q0 -116 -79 -172.5t-200 -56.5t-219 46l-27 207
l21 7q71 -116 129.5 -166.5t129.5 -50.5q54 0 85 28t31 75q0 25 -11 47t-23 36t-41.5 32.5t-45 26t-54.5 27.5q-40 20 -61 31.5t-53 34.5t-48.5 44.5t-29.5 54.5t-13 71q0 108 79 160t198 52q82 0 159 -24z" />
    <glyph glyph-name="T" unicode="T" horiz-adv-x="765" 
d="M519 2v-2h-273v2q27 62 36.5 105.5t9.5 118.5v465l-48 -3q-26 -2 -66.5 -42.5t-65 -73t-61.5 -85.5l-21 6l41 239h623l41 -239l-21 -6q-92 129 -136 169q-34 30 -57 32l-48 3v-465q0 -75 9.5 -118.5t36.5 -105.5z" />
    <glyph glyph-name="U" unicode="U" horiz-adv-x="762" 
d="M394 -16q-137 0 -220 70t-83 214v237q0 75 -9.5 119t-36.5 106v2h275v-2q-27 -59 -37 -104t-10 -120v-247q0 -120 43.5 -168.5t121.5 -48.5q184 0 184 238v218q0 80 -18.5 125.5t-71.5 106.5v2h227l2 -2q-52 -64 -71 -110t-19 -123v-210q0 -68 -13 -120t-43.5 -94.5
t-86 -65.5t-134.5 -23z" />
    <glyph glyph-name="V" unicode="V" horiz-adv-x="736" 
d="M8 732h314v-2q-66 -72 -19 -200l135 -375l121 331q56 154 -34 244v2h202v-2q-49 -48 -99 -186l-199 -547h-123l-196 538q-28 76 -49.5 119.5t-52.5 75.5v2z" />
    <glyph glyph-name="W" unicode="W" horiz-adv-x="1102" 
d="M8 732h312v-2q-57 -68 -17 -199l106 -343l120 347l-4 13q-45 135 -89 182v2h305v-2q-62 -70 -19 -200l113 -340l94 305q47 153 -36 235v2h201v-2q-60 -60 -100 -189l-171 -544h-114l-156 467l-161 -467h-115l-170 538q-43 138 -99 195v2z" />
    <glyph glyph-name="X" unicode="X" horiz-adv-x="768" 
d="M751 0h-324v3q20 25 15 66t-32 88l-86 147l-71 -107q-22 -34 -30.5 -63.5t-2 -55.5t13.5 -39.5t21 -36.5v-2h-238v2q113 91 167 172l115 173l-127 216q-39 67 -69 105t-66 61v3h323v-3q-20 -25 -15 -66t32 -88l68 -116l46 77q28 45 33 84.5t-4 62t-28 47.5v2h239v-2
q-109 -74 -171 -172l-89 -144l144 -245q39 -67 69.5 -105t66.5 -61v-3z" />
    <glyph glyph-name="Y" unicode="Y" horiz-adv-x="695" 
d="M208 0v2q26 54 36 92t10 101v144l-116 213q-42 77 -69 114t-61 63v3h326v-3q-16 -14 -24.5 -38t-5 -60.5t24.5 -74.5l88 -161l76 135q25 45 25.5 86.5t-14 67t-38.5 46.5v2h221v-2q-69 -67 -139 -190l-113 -198v-148q0 -63 9.5 -101.5t35.5 -90.5v-2h-272z" />
    <glyph glyph-name="Z" unicode="Z" horiz-adv-x="703" 
d="M28 0v17l412 674l-128 -6q-63 -2 -112 -46.5t-123 -144.5l-20 7l55 231h552v-17l-411 -675l153 7q64 2 121 58t127 162l20 -7l-58 -260h-588z" />
    <glyph glyph-name="a" unicode="a" horiz-adv-x="580" 
d="M149 -16q-53 0 -87.5 30.5t-34.5 83.5q0 145 274 205v30q0 49 -23.5 70.5t-79.5 21.5q-68 0 -138 -30l-12 14q43 54 107 89t143 35q83 0 124.5 -41t41.5 -111v-242q0 -54 45 -54q29 0 51 21l12 -10q-47 -111 -149 -111q-49 0 -79 24t-38 62q-26 -37 -67 -62t-90 -25z
M170 149q0 -29 19.5 -47.5t51.5 -18.5q33 0 60 19v162q-63 -18 -97 -48t-34 -67z" />
    <glyph glyph-name="b" unicode="b" horiz-adv-x="634" 
d="M62 -3v565q0 63 -14 104t-47 77v2l224 61v-356h3q26 35 70.5 59t100.5 24q94 0 149.5 -71t55.5 -185q0 -128 -75.5 -210.5t-214.5 -82.5q-112 0 -180 55l-62 -42h-10zM324 23q54 0 81 57.5t27 155.5q0 107 -30 154.5t-92 47.5q-49 0 -85 -28v-241q0 -75 28 -110.5
t71 -35.5z" />
    <glyph glyph-name="c" unicode="c" horiz-adv-x="523" 
d="M482 151l13 -8q-22 -73 -81 -116t-144 -43q-109 0 -177 71.5t-68 190.5q0 126 82 206.5t210 80.5q76 0 144 -25l16 -149l-13 -4q-52 69 -91.5 104t-74.5 35q-46 0 -76.5 -47t-30.5 -133q0 -105 46 -157t119 -52q83 0 126 46z" />
    <glyph glyph-name="d" unicode="d" horiz-adv-x="651" 
d="M316 533q52 0 93 -13v41q0 64 -14 105t-48 76v2l225 62v-572q0 -86 14.5 -125t48.5 -74v-2l-223 -48v104h-2q-26 -45 -71 -75t-104 -30q-94 0 -149.5 69t-55.5 181q0 128 76 213.5t210 85.5zM202 281q0 -202 113 -202q58 0 94 46v256q-12 113 -94 113q-57 0 -85 -57.5
t-28 -155.5z" />
    <glyph glyph-name="e" unicode="e" horiz-adv-x="535" 
d="M363 108q77 0 129 49l12 -8q-23 -76 -82 -120.5t-147 -44.5q-114 0 -182 74.5t-68 190.5q0 124 74 204t185 80q106 0 165.5 -73.5t55.5 -171.5h-313q15 -180 171 -180zM282 494q-41 0 -66 -48.5t-25 -116.5l157 4v40q0 121 -66 121z" />
    <glyph glyph-name="f" unicode="f" horiz-adv-x="416" 
d="M56 0v2q19 39 28 76.5t9 100.5v287h-68v51h68v20q0 119 75 194t187 75q35 0 91 -12l16 -159l-13 -4q-9 12 -29.5 42.5t-32.5 47t-29 31.5t-31 15q-29 0 -49.5 -47.5t-20.5 -121.5v-81h122v-51h-122v-288q0 -105 38 -176v-2h-239z" />
    <glyph glyph-name="g" unicode="g" horiz-adv-x="593" 
d="M277 168q-58 0 -103 18q-25 -12 -25 -40q0 -45 96 -50l118 -5q101 -5 157 -42t55 -107q-1 -83 -82.5 -131t-227.5 -48q-116 0 -182 29t-66 83q0 62 77 94q-56 32 -56 98q0 94 101 136q-88 51 -88 147q0 79 63 131t162 52q72 0 129 -34l169 84l2 -1v-127h-4l-143 14
q73 -47 73 -123q0 -75 -63.5 -126.5t-161.5 -51.5zM277 207q70 0 70 143q0 144 -71 144q-69 0 -69 -144q0 -143 70 -143zM115 -99q0 -93 186 -93q161 0 161 68q0 29 -33.5 41.5t-110.5 16.5l-106 5q-49 3 -81 13q-16 -24 -16 -51z" />
    <glyph glyph-name="h" unicode="h" horiz-adv-x="647" 
d="M43 0v2q30 87 30 197v363q0 63 -14 104t-47 77v2l224 61v-375q26 42 73 72t111 30q72 0 114.5 -40t42.5 -108v-186q0 -117 29 -197v-2h-222v2q30 83 30 195v165q0 34 -19 54.5t-56 20.5q-65 0 -103 -55v-184q0 -112 29 -196v-2h-222z" />
    <glyph glyph-name="i" unicode="i" horiz-adv-x="313" 
d="M146 595q-39 0 -65.5 27t-26.5 65t26.5 65t65.5 27t67 -27t28 -65t-28 -65t-67 -27zM47 0v2q30 97 30 197v93q0 63 -14 104t-48 77v4l225 61v-340q0 -115 28 -196v-2h-221z" />
    <glyph glyph-name="j" unicode="j" horiz-adv-x="298" 
d="M139 595q-38 0 -64.5 27t-26.5 65t26.5 65t64.5 27q40 0 67.5 -27t27.5 -65t-27.5 -65t-67.5 -27zM-29 -228l-4 14q103 46 103 191v332q0 54 -15 91.5t-48 72.5v4l228 61l-5 -488q-1 -134 -68 -199t-191 -79z" />
    <glyph glyph-name="k" unicode="k" horiz-adv-x="622" 
d="M43 0v2q30 81 30 177v383q0 63 -14 104t-47 76v3l224 61v-628q0 -100 38 -176v-2h-231zM617 0h-217l-153 270l126 112q34 30 38 69t-16 63v3h205v-3q-64 -32 -160 -117l-52 -48l130 -228q49 -85 99 -119v-2z" />
    <glyph glyph-name="l" unicode="l" horiz-adv-x="309" 
d="M43 0v2q30 81 30 177v383q0 63 -14 104t-48 76v3l225 61v-628q0 -98 29 -176v-2h-222z" />
    <glyph glyph-name="m" unicode="m" horiz-adv-x="954" 
d="M47 0v2q30 87 30 197v95q0 63 -14 104t-48 77v2l221 61v-106l4 -1q24 42 69.5 72t106.5 30q58 0 94.5 -27t47.5 -74l4 -1q23 42 67.5 72t105.5 30q68 0 108.5 -38.5t40.5 -104.5v-191q0 -113 29 -197v-2h-221v2q29 80 29 195v173q0 67 -67 67q-61 0 -92 -54v-184
q0 -118 30 -197v-2h-222v2q28 77 28 195v173q0 67 -62 67q-64 0 -96 -57v-182q0 -110 28 -196v-2h-221z" />
    <glyph glyph-name="n" unicode="n" horiz-adv-x="650" 
d="M46 0v2q31 85 31 197v95q0 63 -14 104t-48 77v2l220 61v-106l5 -1q25 41 72 71.5t111 30.5q72 0 114.5 -40t42.5 -108v-186q0 -117 29 -197v-2h-221v2q29 80 29 195v165q0 34 -18.5 54.5t-56.5 20.5q-64 0 -102 -53v-186q0 -115 28 -196v-2h-222z" />
    <glyph glyph-name="o" unicode="o" horiz-adv-x="630" 
d="M315 -16q-116 0 -203.5 77.5t-86.5 196.5q0 119 87.5 197t202.5 78t202.5 -77t87.5 -198q0 -120 -87 -197t-203 -77zM316 23q56 0 85 63t29 172q0 108 -29.5 172t-85.5 64t-85.5 -64t-29.5 -172t30 -171.5t86 -63.5z" />
    <glyph glyph-name="p" unicode="p" horiz-adv-x="641" 
d="M41 -232v3q29 87 29 197v326q0 64 -14 104.5t-49 76.5v2l223 61v-87l6 -1q63 83 170 83q94 0 149.5 -71t55.5 -185q0 -127 -74.5 -210t-206.5 -83q-55 0 -97 14v-31q0 -114 29 -196v-3h-221zM331 23q54 0 82 57.5t28 155.5q0 106 -30.5 154t-92.5 48q-50 0 -85 -28v-229
q0 -81 27.5 -119.5t70.5 -38.5z" />
    <glyph glyph-name="q" unicode="q" horiz-adv-x="633" 
d="M601 -232h-222v3q30 85 30 197v119q-26 -45 -70.5 -74t-103.5 -29q-93 0 -149 69.5t-56 180.5q0 128 77.5 213.5t216.5 85.5q108 0 187 -43l57 41h4v-564q0 -114 29 -196v-3zM201 280q0 -99 31 -150t87 -51q59 0 90 45v257q-12 113 -94 113q-57 0 -85.5 -58t-28.5 -156z
" />
    <glyph glyph-name="r" unicode="r" horiz-adv-x="464" 
d="M47 0v2q30 87 30 197v95q0 63 -14 104t-48 77v2l220 61v-132q21 34 39.5 56.5t44 43t57 27.5t68.5 0l-27 -191l-8 -1q-28 20 -62.5 33t-56.5 13q-26 0 -50 -31v-158q0 -115 28 -196v-2h-221z" />
    <glyph glyph-name="s" unicode="s" horiz-adv-x="469" 
d="M393 516l14 -132l-14 -4q-52 62 -88 88t-76 26q-32 0 -50.5 -14.5t-18.5 -41.5q0 -11 3 -21t11.5 -18.5t15 -14.5t22.5 -13.5t24 -11t29 -12.5t29 -12q70 -30 109.5 -69.5t39.5 -111.5q0 -86 -61.5 -128t-159.5 -42q-93 0 -175 33l-15 150l14 4q52 -75 100 -111.5
t102 -36.5q74 0 74 59q0 18 -8 32t-25.5 25.5t-32.5 19t-42 19.5q-9 4 -14 6q-31 14 -47 21.5t-41.5 25t-38 34t-23 43.5t-10.5 59q0 84 61.5 125t159.5 41q68 0 132 -17z" />
    <glyph glyph-name="t" unicode="t" horiz-adv-x="425" 
d="M393 83q-20 -42 -63.5 -70.5t-106.5 -28.5q-66 0 -106 36t-40 111v335h-60v33l212 141h12v-123h139v-51h-139v-318q0 -73 72 -73q41 0 70 19z" />
    <glyph glyph-name="u" unicode="u" horiz-adv-x="624" 
d="M208 -16q-69 0 -107 45.5t-38 123.5v231q0 48 -11 75t-35 54v4h210v-353q0 -35 17.5 -57t52.5 -22q53 0 84 55v246q0 48 -11 76t-35 52v3h209v-283q0 -90 13 -127.5t48 -71.5v-2l-218 -48v112l-4 1q-24 -43 -68.5 -78.5t-106.5 -35.5z" />
    <glyph glyph-name="v" unicode="v" horiz-adv-x="517" 
d="M427 354l-157 -361h-58l-150 362q-31 74 -47.5 105.5t-37.5 53.5v3h257v-3q-16 -20 -17.5 -63.5t17.5 -94.5l72 -178l68 157q17 39 18.5 78.5t-7 63t-19.5 37.5v3h161v-3q-30 -32 -50.5 -64t-49.5 -96z" />
    <glyph glyph-name="w" unicode="w" horiz-adv-x="816" 
d="M728 354l-144 -361h-57l-130 341l-139 -341h-58l-135 362q-44 118 -80 159v3h254v-3q-17 -21 -18.5 -63.5t15.5 -92.5l60 -166l80 196q-22 58 -35 83.5t-29 42.5v3h249v-3q-15 -19 -17 -62.5t15 -93.5l63 -164l56 141q23 67 15.5 112.5t-32.5 66.5v3h163v-3
q-30 -33 -50 -65t-46 -95z" />
    <glyph glyph-name="x" unicode="x" horiz-adv-x="579" 
d="M155 163l55 77l-74 119q-42 69 -66 99.5t-54 55.5v3h270v-3q-28 -41 34 -145l27 -44l15 21q80 112 31 168v3h168v-3q-43 -36 -73 -67.5t-75 -93.5l-44 -64l81 -131q44 -71 67.5 -100.5t54.5 -55.5v-2h-270v2q27 44 -35 146l-35 56l-25 -35q-82 -109 -33 -167v-2h-167v2
q43 35 73 66.5t75 94.5z" />
    <glyph glyph-name="y" unicode="y" horiz-adv-x="516" 
d="M10 -232v142q162 -13 209 70l-157 375q-31 74 -47.5 105.5t-37.5 53.5v3h257v-3q-16 -20 -17.5 -63t17.5 -95l72 -177l67 156q27 67 21.5 112t-28.5 67v3h160v-3q-52 -56 -99 -160l-149 -342q-34 -71 -64 -115.5t-65.5 -69.5t-62 -35.5t-76.5 -23.5z" />
    <glyph glyph-name="z" unicode="z" horiz-adv-x="537" 
d="M514 200l-48 -200h-443v10l275 470l-83 -5q-16 -1 -32 -7.5t-36 -24.5t-30.5 -28.5t-38 -42t-36.5 -41.5l-13 5l50 181h412v-11l-275 -471l102 4q46 2 82.5 38.5t99.5 127.5z" />
    <glyph glyph-name="quoteleft" unicode="&#x2018;" horiz-adv-x="247" 
d="M204 755l13 -22q-29 -20 -48.5 -49t-19.5 -53q0 -37 49 -88v-3l-107 -83q-25 17 -42 44.5t-17 57.5q0 53 47 104.5t125 91.5z" />
    <glyph glyph-name="quoteright" unicode="&#x2019;" horiz-adv-x="247" 
d="M43 457l-13 22q29 20 48.5 49t19.5 53q0 37 -49 88v3l107 83q25 -17 42 -44.5t17 -57.5q0 -53 -47 -104.5t-125 -91.5z" />
    <glyph glyph-name="quotedblleft" unicode="&#x201c;" horiz-adv-x="448" 
d="M205 755l12 -22q-29 -20 -48.5 -49t-19.5 -53q0 -37 49 -88v-3l-107 -83q-25 17 -42 44.5t-17 57.5q0 53 47.5 104.5t125.5 91.5zM406 752l12 -22q-29 -20 -48.5 -49t-19.5 -53q0 -35 49 -88v-2l-107 -84q-25 17 -42 44.5t-17 58.5q0 52 47.5 103.5t125.5 91.5z" />
    <glyph glyph-name="quotedblright" unicode="&#x201d;" horiz-adv-x="448" 
d="M43 457l-13 22q29 20 48.5 49t19.5 53q0 37 -49 88v3l107 83q25 -17 42 -44.5t17 -57.5q0 -53 -47 -104.5t-125 -91.5zM244 457l-13 22q29 20 48.5 49t19.5 53q0 37 -49 88v3l107 83q25 -17 42 -44.5t17 -57.5q0 -53 -47 -104.5t-125 -91.5z" />
    </font>
</defs>
</svg>
