<?xml version="1.0" standalone="no"?>
<!DOCTYPE svg PUBLIC "-//W3C//DTD SVG 1.1//EN" "http://www.w3.org/Graphics/SVG/1.1/DTD/svg11.dtd" >
<svg xmlns="http://www.w3.org/2000/svg" xmlns:xlink="http://www.w3.org/1999/xlink" version="1.1">
<metadata>
Created by FontForge 20201107 at Tue Apr 28 15:18:13 2015
 By Unknown
Copyright (c) 2015 by Dogu Kaya. All rights reserved.
</metadata>
<defs>
<font id="Kollektif" horiz-adv-x="732" >
  <font-face 
    font-family="Kollektif"
    font-weight="400"
    font-stretch="normal"
    units-per-em="1000"
    panose-1="2 11 6 4 2 1 1 1 1 2"
    ascent="809"
    descent="-191"
    x-height="479"
    cap-height="709"
    bbox="-51 -240 989 934"
    underline-thickness="80"
    underline-position="-195"
    unicode-range="U+0020-FB04"
  />
<missing-glyph horiz-adv-x="354" 
 />
    <glyph glyph-name="fl" unicode="fl" horiz-adv-x="497" 
d="M99 0v392h-82v67l82 20v51q1 63 20.5 102.5t50 62t70.5 31t82 8.5q34 0 67.5 -3.5t65.5 -8.5v-722h-97v651q-11 1 -21.5 1.5t-21.5 0.5q-23 0 -44 -4.5t-38 -16.5t-27 -33t-10 -54v-66h108v-87h-108v-392h-97z" />
    <glyph glyph-name="ffi" unicode="ffi" horiz-adv-x="826" 
d="M427 0v392h-219v-392h-97v392h-82v67l82 20v58q0 51 13 88.5t35.5 61.5t52 35.5t62.5 11.5q40 0 82 -17v-71q-36 11 -62 11q-41 0 -63.5 -25t-22.5 -80v-73h219v58q1 54 16 91.5t39 61t55 34t65 10.5q45 0 87.5 -13t80.5 -41l-41 -56q-22 8 -43 15q-18 6 -39.5 11
t-38.5 5q-35 0 -59.5 -22t-24.5 -81v-73h261v-479h-97v392h-164v-392h-97z" />
    <glyph glyph-name="fi" unicode="fi" horiz-adv-x="499" 
d="M102 0v392h-82v67l82 20v58q1 54 16 91.5t39 61t55 34t65 10.5q45 0 87.5 -13t80.5 -41l-41 -56q-22 8 -43 15q-18 6 -39.5 11t-38.5 5q-35 0 -59.5 -22t-24.5 -81v-73h261v-479h-97v392h-164v-392h-97z" />
    <glyph glyph-name="ffl" unicode="ffl" horiz-adv-x="833" 
d="M435 0v392h-229v-392h-97v392h-82v67l82 20v58q0 51 13 88.5t35.5 61.5t51.5 35.5t62 11.5q41 0 83 -17v-71q-36 11 -62 11q-41 0 -63.5 -25t-22.5 -80v-73h229v51q1 63 20.5 102.5t50 62t70.5 31t82 8.5q34 0 67.5 -3.5t65.5 -8.5v-722h-97v651q-11 1 -21.5 1.5
t-21.5 0.5q-23 0 -44 -4.5t-38 -16.5t-27 -33t-10 -54v-66h108v-87h-108v-392h-97z" />
    <glyph glyph-name="ff" unicode="ff" horiz-adv-x="699" 
d="M433 0v392h-229v-392h-97v392h-82v67l82 20v58q0 51 13 88.5t35.5 61.5t51.5 35.5t62 11.5q41 0 83 -17v-71q-36 11 -62 11q-41 0 -63.5 -25t-22.5 -80v-73h229v58q0 51 13 88.5t35.5 61.5t51.5 35.5t62 11.5q41 0 83 -17v-71q-36 11 -62 11q-41 0 -63.5 -25t-22.5 -80
v-73h148v-87h-148v-392h-97z" />
    <glyph glyph-name="f_f_j" unicode="ffj" horiz-adv-x="814" 
d="M420 0v392h-228v-392h-97v392h-82v67l82 20v58q0 51 13 88.5t35.5 61.5t51.5 35.5t62 11.5q41 0 83 -17v-71q-36 11 -62 11q-41 0 -63.5 -25t-22.5 -80v-73h228v58q1 54 16 91.5t39 61t55 34t65 10.5q45 0 87.5 -13t80.5 -41l-41 -56q-22 8 -43 15q-18 6 -39.5 11
t-38.5 5q-35 0 -59.5 -22t-24.5 -81v-73h261v-512q0 -47 -10.5 -78.5t-28.5 -51t-42 -28t-51 -8.5q-44 0 -92 17l18 72q14 -2 26 -3t22 -1q34 0 47.5 14.5t13.5 51.5v440h-164v-392h-97z" />
    <glyph glyph-name="f_j" unicode="fj" horiz-adv-x="486" 
d="M93 0v392h-82v67l82 20v58q1 54 16 91.5t39 61t55 34t65 10.5q45 0 87.5 -13t80.5 -41l-41 -56q-22 8 -43 15q-18 6 -39.5 11t-38.5 5q-35 0 -59.5 -22t-24.5 -81v-73h261v-512q0 -47 -10.5 -78.5t-28.5 -51t-42 -28t-51 -8.5q-44 0 -92 17l18 72q14 -2 26 -3t22 -1
q34 0 47.5 14.5t13.5 51.5v440h-164v-392h-97z" />
    <glyph glyph-name=".notdef" horiz-adv-x="354" 
 />
    <glyph glyph-name="A" unicode="A" 
d="M125 0h-114l295 709h115l295 -709h-113l-93 222h-293zM257 318h213l-106 256z" />
    <glyph glyph-name="a" unicode="a" horiz-adv-x="553" 
d="M510 479v-479h-82l-15 55q-25 -33 -64 -50t-79 -17q-50 0 -93.5 19.5t-76 53.5t-51.5 80t-19 98t19 98t51.5 80t76 53.5t93.5 19.5q40 0 77 -15.5t66 -48.5l15 53h82zM270 74q29 0 55 13t45 35.5t30 52.5t11 64t-11 64t-30 52.5t-45 35.5t-55 13t-55 -13t-45 -35.5
t-30 -52.5t-11 -64t11 -64t30 -52.5t45 -35.5t55 -13z" />
    <glyph glyph-name="b" unicode="b" horiz-adv-x="583" 
d="M136 0h-77v730h97v-303q28 30 65 46.5t86 16.5q50 0 92.5 -19.5t73.5 -53.5t48.5 -80t17.5 -98t-17.5 -98t-48.5 -80t-73.5 -53.5t-92.5 -19.5q-47 0 -84.5 16.5t-66.5 45.5zM299 402q-29 0 -55 -8.5t-45.5 -28t-30.5 -50.5t-11 -76q0 -42 11 -73t30.5 -51.5t45.5 -30.5
t55 -10t55 13t45 35.5t30 52.5t11 64t-11 64t-30 52t-45 34.5t-55 12.5z" />
    <glyph glyph-name="c" unicode="c" horiz-adv-x="508" 
d="M276 -12q-50 0 -93.5 19.5t-76 53.5t-51.5 80t-19 98t19 98t51.5 80t76 53.5t93.5 19.5q58 0 107 -26t82 -71l-68 -53q-20 29 -50.5 45.5t-65.5 16.5q-30 0 -57 -12.5t-47 -34.5t-31.5 -52t-11.5 -64t11.5 -64t31.5 -52.5t47 -35.5t57 -13q39 0 71 21t52 56l66 -58
q-32 -48 -83 -76.5t-111 -28.5z" />
    <glyph glyph-name="d" unicode="d" horiz-adv-x="579" 
d="M514 730v-730h-77l-20 50q-29 -29 -66 -45.5t-85 -16.5q-50 0 -92 19.5t-73 53.5t-48.5 80t-17.5 98t17.5 98t48.5 80t73 53.5t92 19.5t87 -16.5t64 -46.5v303h97zM274 74q30 0 55.5 10t45 30.5t30.5 51.5t11 73q0 45 -11 76t-30.5 50.5t-45 28t-55.5 8.5
q-29 0 -55 -12.5t-45 -34.5t-30 -52t-11 -64t11 -64t30 -52.5t45 -35.5t55 -13z" />
    <glyph glyph-name="e" unicode="e" horiz-adv-x="530" 
d="M283 -12q-52 0 -97.5 19.5t-79.5 53.5t-53.5 80t-19.5 98t18.5 98t50 80t73.5 53.5t90 19.5q49 0 90.5 -17t72 -53t47.5 -91.5t17 -132.5h-356q7 -26 22 -48.5t35.5 -39t46 -25.5t53.5 -9q38 0 70.5 14t55.5 37l60 -60q-35 -35 -85.5 -56t-110.5 -21zM265 402
q-23 0 -43.5 -9t-38 -25t-30 -38t-18.5 -48h253q-2 24 -11 46t-25 38.5t-37.5 26t-49.5 9.5z" />
    <glyph glyph-name="f" unicode="f" horiz-adv-x="380" 
d="M125 0v392h-82v67l82 20v58q0 51 13 88.5t35.5 61.5t51.5 35.5t62 11.5q41 0 83 -17v-71q-36 11 -62 11q-41 0 -63.5 -25t-22.5 -80v-73h148v-87h-148v-392h-97z" />
    <glyph glyph-name="g" unicode="g" horiz-adv-x="591" 
d="M274 24q-50 0 -92 18.5t-73 51t-48.5 75t-17.5 90.5t17.5 90t48.5 73.5t73 49.5t92 18t87 -15t65 -43l20 47h76v-7.5v-17.5v-37v-66t0.5 -105t0.5 -153q0 -30 -2 -58.5t-8.5 -55t-19 -51t-33.5 -47.5q-40 -42 -90.5 -56.5t-106.5 -14.5q-48 0 -90.5 12t-76.5 32v108
q20 -29 62.5 -47t96.5 -18q36 0 67 9.5t54 29t36.5 50.5t13.5 74v19q-12 -11 -29.5 -21t-38 -17.5t-42.5 -12t-42 -4.5zM283 402q-29 0 -55 -11t-45.5 -30.5t-30.5 -45.5t-11 -56t11 -56.5t30.5 -46t45.5 -31t55 -11.5t55 9t45 27t30 45t11 64q0 39 -11 66.5t-30 44.5
t-45 24.5t-55 7.5z" />
    <glyph glyph-name="h" unicode="h" horiz-adv-x="542" 
d="M153 0h-97v730h97v-295q27 30 56.5 42.5t68.5 12.5q50 0 89.5 -19.5t67.5 -53.5t42.5 -80t14.5 -98v-239h-98v239q0 34 -9.5 64t-26 52t-38 34.5t-46.5 12.5q-21 0 -42 -8.5t-38.5 -27.5t-29 -50t-11.5 -75v-241z" />
    <glyph glyph-name="i" unicode="i" horiz-adv-x="210" 
d="M157 0h-97v479h96zM108 583q-26 0 -44 18.5t-18 44.5t18 44t44 18t44 -18t18 -44t-18 -44.5t-44 -18.5z" />
    <glyph glyph-name="j" unicode="j" horiz-adv-x="238" 
d="M79 479h97v-512q0 -66 -19.5 -102.5t-51.5 -51.5t-72 -12t-81 17l18 72q31 -4 51.5 -4t33.5 7t18.5 21t5.5 38v527zM126 708q26 0 44.5 -18t18.5 -44t-18.5 -44.5t-44.5 -18.5t-44 18.5t-18 44.5t18 44t44 18z" />
    <glyph glyph-name="k" unicode="k" horiz-adv-x="500" 
d="M158 0h-97v730h97v-448l188 197h120l-184 -193l198 -286h-110l-151 220l-61 -64v-156z" />
    <glyph glyph-name="l" unicode="l" horiz-adv-x="212" 
d="M158 730v0v-730h-97v730h97z" />
    <glyph glyph-name="m" unicode="m" horiz-adv-x="738" 
d="M153 0h-97v479h77l20 -41q18 21 43 36.5t61 15.5q14 0 31.5 -3.5t36 -12t35.5 -23t29 -37.5q17 31 51.5 53.5t73.5 22.5q26 0 55 -8t54 -30t41 -61t16 -101v-290h-91v291q0 62 -25.5 86.5t-67.5 24.5q-32 0 -56 -27t-24 -85v-290h-91v291q0 62 -25.5 86.5t-67.5 24.5
q-30 0 -52.5 -23t-26.5 -72v-307z" />
    <glyph glyph-name="n" unicode="n" horiz-adv-x="534" 
d="M151 0h-97v479h77l20 -42q24 23 58 38t74 15q26 0 59 -8t61.5 -30t48 -61t19.5 -101v-290h-92v291q0 31 -9.5 52.5t-25 34.5t-35 18.5t-40.5 5.5q-16 0 -36.5 -6t-38.5 -19.5t-30.5 -34t-12.5 -50.5v-292z" />
    <glyph glyph-name="o" unicode="o" horiz-adv-x="528" 
d="M266 -12q-50 0 -93.5 19.5t-76 53.5t-51.5 80t-19 98t19 98t51.5 80t76 53.5t93.5 19.5q49 0 93 -19.5t76.5 -53.5t51.5 -80t19 -98t-19 -98t-51.5 -80t-76.5 -53.5t-93 -19.5zM266 403q-29 0 -55 -13t-45.5 -35t-30.5 -52t-11 -64t11 -64t30.5 -52.5t45.5 -35.5t55 -13
t55 13t45 35.5t30 52.5t11 64t-11 64t-30 52t-45 35t-55 13z" />
    <glyph glyph-name="p" unicode="p" horiz-adv-x="564" 
d="M56 -198v677h77l20 -50q29 29 66.5 45t84.5 16q50 0 92.5 -19.5t73.5 -53.5t48.5 -80t17.5 -98t-17.5 -98t-48.5 -80t-73.5 -53.5t-92.5 -19.5q-49 0 -86 16.5t-65 47.5v-250h-97zM296 402q-29 0 -55 -9.5t-45.5 -30t-30.5 -51t-11 -72.5q0 -45 11 -76.5t30.5 -51
t45.5 -28.5t55 -9t55 13t45 35.5t30 52.5t11 64t-11 64t-30 52t-45 34.5t-55 12.5z" />
    <glyph glyph-name="q" unicode="q" horiz-adv-x="568" 
d="M510 -198h-97v250q-27 -31 -64 -47.5t-87 -16.5t-92 19.5t-73 53.5t-48.5 80t-17.5 98t17.5 98t48.5 80t73 53.5t92 19.5q48 0 85 -16t66 -45l20 50h77v-677zM271 74q29 0 55 9t45 28.5t30 51t11 76.5q0 42 -11 72.5t-30 51t-45 30t-55 9.5q-30 0 -55.5 -12.5t-45 -34.5
t-30.5 -52t-11 -64t11 -64t30.5 -52.5t45 -35.5t55.5 -13z" />
    <glyph glyph-name="r" unicode="r" horiz-adv-x="378" 
d="M345 390l-14 6q-6 2 -14 4t-17 2q-29 0 -54 -9.5t-43 -25.5t-28.5 -37.5t-10.5 -45.5l-1 -284h-97v479h77l20 -53q20 29 52.5 46.5t81.5 17.5q32 0 73 -9l-25 -91v0z" />
    <glyph glyph-name="s" unicode="s" horiz-adv-x="430" 
d="M279 100q9 8 16 18t7 23q0 16 -11.5 27t-28 18.5t-34.5 11.5t-30 7q-33 8 -62 19.5t-50.5 28t-34 39t-12.5 53.5q0 29 14 54.5t37.5 45t55 31t66.5 11.5q31 0 59 -9t50.5 -24.5t38 -37.5t20.5 -49l-87 -21q-6 24 -26 40t-55 16q-12 0 -25 -3.5t-24 -10.5t-18.5 -17
t-7.5 -23q0 -14 8.5 -24t20.5 -16.5t26 -10.5t26 -7q53 -13 88 -28t56 -33t29.5 -39.5t8.5 -48.5q0 -32 -14.5 -60t-40 -48.5t-61 -32t-76.5 -11.5q-62 0 -110.5 30.5t-65.5 81.5l82 37q16 -35 41 -47.5t57 -12.5q40 0 67 22z" />
    <glyph glyph-name="t" unicode="t" horiz-adv-x="342" 
d="M316 1q-41 -14 -81 -17t-72 11.5t-52 51t-20 102.5v243h-70v67l70 20v128h97v-128h130v-87h-130v-258q0 -24 5.5 -38t18.5 -21t34 -7t51 4l19 -71v0z" />
    <glyph glyph-name="u" unicode="u" horiz-adv-x="535" 
d="M380 43q-25 -23 -58.5 -38t-74.5 -15q-26 0 -59 7.5t-61.5 29.5t-48 60.5t-19.5 100.5v291h92v-291q0 -31 9.5 -52.5t25 -34.5t35.5 -19t41 -6q16 0 36.5 6t38.5 19.5t30.5 34.5t12.5 51v292h97v-479h-77z" />
    <glyph glyph-name="v" unicode="v" horiz-adv-x="552" 
d="M339 0h-129l-198 479h105l158 -381l158 381h105z" />
    <glyph glyph-name="w" unicode="w" horiz-adv-x="776" 
d="M175 0l-161 479h103l112 -362l118 362h86l118 -359l111 359h103l-161 -479h-106l-100 293l-8 46l-8 -46l-99 -293h-108z" />
    <glyph glyph-name="x" unicode="x" horiz-adv-x="518" 
d="M502 0h-118l-123 168l-124 -168h-118l183 248l-170 231h118l111 -150l110 150h118l-169 -231z" />
    <glyph glyph-name="y" unicode="y" horiz-adv-x="535" 
d="M213 54l-203 425h108l148 -311l145 311h107l-309 -670h-107z" />
    <glyph glyph-name="z" unicode="z" horiz-adv-x="451" 
d="M157 86h263v-86h-399v69l261 323h-240v87h374v-73z" />
    <glyph glyph-name="germandbls" unicode="&#xdf;" horiz-adv-x="527" 
d="M208 86h68q21 0 38 11.5t29 29.5t18.5 41t6.5 47t-5.5 45t-19 36.5t-36 24.5t-55.5 9v97q37 0 57.5 30t20.5 71q0 40 -21.5 68.5t-64.5 28.5q-37 0 -63 -28.5t-26 -68.5v-37t-0.5 -80t-0.5 -108v-121v-325h-105v684q0 36 14 68.5t38 56.5t56 38t69 14h24q36 0 68.5 -14
t56.5 -38t38 -56.5t14 -68.5q0 -42 -9 -67.5t-19.5 -41.5t-19 -25.5t-8.5 -17.5t16.5 -17.5t36 -28.5t36 -52t16.5 -89q0 -41 -16 -79.5t-43 -68t-63.5 -47t-77.5 -17.5h-68v96z" />
    <glyph glyph-name="caron" unicode="&#x2c7;" horiz-adv-x="353" 
d="M240 861h101l-121 -125h-91l-116 125h102l60 -88z" />
    <glyph glyph-name="a.salt" horiz-adv-x="482" 
d="M261 282q33 3 51 6.5t27 8t11 11t2 16.5q0 15 -9 29t-24 25t-35.5 17.5t-42.5 6.5q-17 0 -32 -3t-29 -11t-29 -21t-32 -32l-73 47q40 53 92.5 80.5t110.5 27.5q27 0 61 -8t64 -30.5t50 -62t20 -101.5v-288h-72l-20 50q-21 -28 -55 -42.5t-78 -18.5q-74 -5 -124.5 22.5
t-58.5 97.5q-4 35 7 64t32.5 50.5t52 34.5t65.5 17zM352 213q-24 -2 -49 -5q-21 -2 -46 -5.5t-45 -5.5q-23 -3 -38 -11t-24 -18.5t-12.5 -21.5t-2.5 -20q4 -26 26.5 -41t63.5 -13q16 1 37.5 7t41.5 19t34 33t14 50v32z" />
    <glyph glyph-name="zero" unicode="0" horiz-adv-x="580" 
d="M285 -10q-52 0 -97.5 24.5t-80.5 69.5q-33 44 -52 101t-19 122v87q0 72 18 131t50 102q32 44 78.5 67.5t102.5 23.5q55 0 101.5 -23t78.5 -67q32 -43 51 -102.5t19 -131.5v-87q0 -69 -19.5 -126.5t-52.5 -100.5q-34 -43 -79.5 -66.5t-98.5 -23.5zM138 307q0 -49 12 -91
t35 -72q20 -26 45.5 -40.5t54.5 -14.5q33 0 60 16t46.5 44.5t30.5 68.5t11 89v87q0 114 -46 175q-39 50 -102 50q-64 0 -103 -51q-44 -59 -44 -174v-87z" />
    <glyph glyph-name="two" unicode="2" horiz-adv-x="551" 
d="M45 0v70l204 232q46 55 73 86t41 50t18 33t4 36q0 56 -33 84.5t-80 28.5q-24 0 -44.5 -9.5t-36 -25.5t-24.5 -36t-9 -42h-102q0 43 17 81.5t46.5 67.5t68.5 46t84 17t84 -17t68 -46t46 -67.5t17 -81.5q0 -32 -8.5 -62.5t-27.5 -53.5l-251 -294h302v-97h-457z" />
    <glyph glyph-name="one" unicode="1" horiz-adv-x="299" 
d="M124 615h-95v94h200v-709h-105v615z" />
    <glyph glyph-name="three" unicode="3" horiz-adv-x="540" 
d="M330 464q47 -4 80.5 -24t55.5 -50.5t32 -69t10 -78.5q0 -50 -19.5 -95.5t-52.5 -80t-77 -55.5t-94 -21q-41 0 -78 13.5t-67 37t-53 55.5t-35 68l92 35q7 -23 21 -43.5t33.5 -35.5t43 -23t49.5 -7q28 1 53 13.5t43.5 33t30 46t12.5 54.5q1 30 -9.5 57t-30 47.5t-45.5 33
t-56 13.5q-10 0 -20 -2t-20 -5l-39 50l124 184h-214v94h349v-67q-34 -50 -60 -89q-11 -17 -22 -32.5t-19 -28.5t-13 -20.5z" />
    <glyph glyph-name="four" unicode="4" horiz-adv-x="642" 
d="M76 130l-33 51l371 528h83v-485h114v-94h-114v-130h-105v130h-316zM193 224h197v285z" />
    <glyph glyph-name="five" unicode="5" horiz-adv-x="538" 
d="M243 90q30 0 56.5 11.5t46.5 31.5t31.5 46.5t11.5 56.5q0 38 -16.5 70.5t-45.5 52.5q-12 9 -29.5 15.5t-38 8.5t-42 0t-41.5 -11q-22 -10 -38 -26l-60 40l37 323h310v-94h-223l-16 -152q53 17 107 10t91 -34q49 -34 76 -87.5t27 -115.5q0 -51 -19 -95.5t-52 -78
t-77.5 -53t-95.5 -19.5q-58 0 -107.5 26t-83.5 68q-20 23 -33 55l86 49q7 -23 23 -42q20 -26 50 -41t65 -15z" />
    <glyph glyph-name="six" unicode="6" horiz-adv-x="569" 
d="M287 -10q-51 0 -95.5 19.5t-77.5 53t-52 78t-19 95.5q0 35 10.5 67t26.5 64q4 7 14 26t23.5 44.5t29.5 55.5t33 60q39 70 85 156h110l-131 -239q52 13 100.5 4t84.5 -35q48 -34 75.5 -87.5t27.5 -115.5q0 -51 -19.5 -95.5t-52.5 -78t-77.5 -53t-95.5 -19.5zM176 336
q-13 -26 -24 -54t-11 -46q0 -30 11.5 -57t31.5 -47t46.5 -32t56.5 -12t57 12t46.5 32t31 47t11.5 57q0 38 -16 70.5t-45 52.5q-18 13 -42.5 20.5t-51 6.5t-52.5 -11t-47 -33z" />
    <glyph glyph-name="seven" unicode="7" horiz-adv-x="484" 
d="M304 615h-274v94h407v-1v-47l-275 -661h-113z" />
    <glyph glyph-name="eight" unicode="8" horiz-adv-x="515" 
d="M33 216q0 52 23.5 97.5t68.5 72.5q-33 26 -48 60.5t-15 72.5q0 40 15.5 76t42.5 63.5t63 43.5t76 16t75.5 -16t62.5 -43.5t42.5 -63.5t15.5 -76q0 -38 -16.5 -72.5t-45.5 -60.5q19 -12 36 -30.5t29 -41t19 -47.5t7 -51q0 -46 -18 -87t-49 -72t-71.5 -49t-86.5 -18t-87 18
t-72 49t-49 72t-18 87zM259 621q-20 0 -37 -8.5t-30 -22.5t-20 -32.5t-7 -38.5q0 -28 14 -50.5t37 -34.5q19 -10 43 -10t43 10q23 12 36.5 34.5t13.5 50.5q0 20 -7 38.5t-20 32.5t-30 22.5t-36 8.5zM213 330q-34 -14 -54.5 -44.5t-20.5 -69.5q0 -25 9.5 -48t25.5 -41
t38 -28.5t48 -10.5q25 0 47 10.5t38 28.5t25.5 41t9.5 48q0 39 -20.5 69.5t-53.5 44.5q-23 9 -46 9q-25 0 -46 -9z" />
    <glyph glyph-name="nine" unicode="9" horiz-adv-x="556" 
d="M135 273q-48 35 -75.5 88.5t-27.5 114.5q0 51 19.5 95t52.5 76.5t77.5 51.5t95.5 19q50 0 94.5 -19t77.5 -51.5t52.5 -76.5t19.5 -95q0 -35 -11 -67t-27 -64q-4 -8 -14 -27t-24 -44.5t-30.5 -56t-33.5 -60.5q-40 -71 -87 -157h-109l135 243q-52 -13 -100.5 -4.5
t-84.5 34.5zM277 622q-30 0 -57 -11.5t-47 -31t-31.5 -46.5t-11.5 -57q0 -38 16.5 -70.5t45.5 -52.5q18 -13 42.5 -20.5t50.5 -6.5t52 11t47 33l4 6q13 26 24 54t11 46q0 30 -11.5 57t-31.5 46.5t-46.5 31t-56.5 11.5z" />
    <glyph glyph-name="breve" unicode="&#x2d8;" horiz-adv-x="375" 
d="M175 751q-27 0 -51 10.5t-42 28.5t-28.5 42.5t-10.5 51.5h75q0 -23 17 -40t40 -17t40 17t17 40h76q0 -27 -10.5 -51.5t-28.5 -42.5t-42.5 -28.5t-51.5 -10.5z" />
    <glyph glyph-name="period" unicode="." horiz-adv-x="239" 
d="M43 52q0 26 18 44.5t44 18.5t44 -18.5t18 -44.5t-18 -44t-44 -18t-44 18t-18 44z" />
    <glyph glyph-name="semicolon" unicode=";" horiz-adv-x="274" 
d="M135 300q-26 0 -44 18t-18 44t18 44.5t44 18.5t44.5 -18.5t18.5 -44.5t-18.5 -44t-44.5 -18zM124 -128h-81l33 246h113z" />
    <glyph glyph-name="colon" unicode=":" horiz-adv-x="304" 
d="M141 300q-26 0 -44 18t-18 44t18 44.5t44 18.5t44.5 -18.5t18.5 -44.5t-18.5 -44t-44.5 -18zM79 52q0 26 18 44.5t44 18.5t44 -18.5t18 -44.5t-18 -44t-44 -18t-44 18t-18 44z" />
    <glyph glyph-name="parenleft" unicode="(" horiz-adv-x="283" 
d="M177 -138q-63 94 -98.5 208.5t-35.5 242.5t34.5 241t96.5 206l80 -20q-60 -88 -94.5 -196.5t-34.5 -230.5q0 -124 34.5 -233t95.5 -197z" />
    <glyph glyph-name="parenright" unicode=")" horiz-adv-x="302" 
d="M23 -117q61 88 96 197t35 233q0 122 -33.5 230.5t-93.5 196.5l78 20q62 -93 96.5 -206t34.5 -241t-35 -242.5t-98 -208.5z" />
    <glyph glyph-name="exclam" unicode="!" horiz-adv-x="258" 
d="M87 164l-13 545h113l-12 -545h-88zM131 -10q-26 0 -44.5 18t-18.5 44t18.5 44.5t44.5 18.5t44 -18.5t18 -44.5t-18 -44t-44 -18z" />
    <glyph glyph-name="question" unicode="?" horiz-adv-x="463" 
d="M149 115q26 0 44 -18.5t18 -44.5t-18 -44t-44 -18t-44 18t-18 44t18 44.5t44 18.5zM175 624q-35 0 -63 -6.5t-54 -28.5l-15 93q59 36 132 36q51 0 95.5 -18t77.5 -48.5t52 -71.5t19 -87q0 -113 -113 -181q-18 -11 -37.5 -19t-36 -20t-27 -30t-10.5 -48v-31h-96v36
q0 46 18.5 78t44.5 53t53 34t45 21q31 14 46 45t15 64q0 27 -11.5 50.5t-31 41t-46.5 27.5t-57 10z" />
    <glyph glyph-name="B" unicode="B" horiz-adv-x="600" 
d="M558 198q0 -41 -15.5 -77t-42.5 -63t-63.5 -42.5t-77.5 -15.5h-303v709h277q36 0 68 -14t56 -38t38 -56.5t14 -69.5q0 -46 -15 -83.5t-49 -63.5q57 -21 85 -71.5t28 -114.5zM160 422q40 -1 74 -1h100q38 0 64 28.5t26 68.5q0 41 -26 69t-64 28h-174v-193zM160 97
q7 -1 31 -1h168q21 0 39.5 9t32.5 24.5t22 36.5t8 45t-8 44.5t-22 36t-32.5 24.5t-39.5 9h-199v-228z" />
    <glyph glyph-name="C" unicode="C" horiz-adv-x="686" 
d="M390 87q58 0 107.5 28t83.5 74l73 -70q-48 -57 -116.5 -93t-147.5 -36q-72 0 -136 29t-111 78.5t-74.5 116t-27.5 140.5q0 75 27.5 141t74.5 115.5t111 78.5t136 29q67 0 126.5 -26.5t106.5 -69.5l-62 -79q-33 35 -77 57.5t-94 22.5q-51 0 -95.5 -21.5t-77.5 -58.5
t-52.5 -85.5t-19.5 -103.5t19.5 -103.5t52.5 -85t77.5 -57.5t95.5 -21z" />
    <glyph glyph-name="D" unicode="D" horiz-adv-x="678" 
d="M60 0v709h252q77 0 136 -28t98.5 -76t60 -113t20.5 -138q0 -74 -21.5 -138.5t-59.5 -112.5t-90 -75.5t-112 -27.5h-284zM308 97q57 0 97 21t66 56t38 82t12 98t-12 98.5t-37.5 83.5t-66 57.5t-97.5 21.5h-143v-518h143z" />
    <glyph glyph-name="E" unicode="E" horiz-adv-x="549" 
d="M489 709v-94h-329v-193h293v-97v0h-293v-228h329v-97v0h-329h-52h-52v709h433z" />
    <glyph glyph-name="F" unicode="F" horiz-adv-x="540" 
d="M534 709v-94h-374v-193h339v-97h-339v-325h-104v709h478z" />
    <glyph glyph-name="G" unicode="G" horiz-adv-x="710" 
d="M452 379h193v-260q-48 -57 -116 -93t-148 -36q-72 0 -136 29t-111 78.5t-74.5 115.5t-27.5 141q0 74 27.5 140.5t74.5 116t111 78.5t136 29q66 0 125 -26t106 -68l-62 -79q-33 35 -76.5 56.5t-92.5 21.5q-51 0 -95.5 -21.5t-77.5 -58.5t-52 -85.5t-19 -103.5t19 -103.5
t52 -85t77.5 -57.5t95.5 -21q47 0 88 18.5t73 49.5v127h-90v97z" />
    <glyph glyph-name="H" unicode="H" horiz-adv-x="723" 
d="M558 709h104v-709h-104v325h-397v-325h-105v709h105v-287h397v287z" />
    <glyph glyph-name="I" unicode="I" horiz-adv-x="393" 
d="M248 623v-537h52v-86h-209v86h53v537h-53v86h209v-86h-52z" />
    <glyph glyph-name="J" unicode="J" horiz-adv-x="482" 
d="M423 709v-448v-46.5t-3 -44.5t-10.5 -43.5t-21.5 -41.5q-32 -45 -77.5 -70t-99.5 -25q-39 0 -73.5 14.5t-62 39t-46.5 57.5t-26 69l95 29q3 -22 13.5 -41.5t25.5 -34.5t34.5 -23.5t40.5 -8.5q24 0 42.5 9.5t31.5 25t21 36t11 41.5q1 5 1.5 21t0.5 40.5v55.5v65
q0 54 -0.5 111t-0.5 105v108h104z" />
    <glyph glyph-name="K" unicode="K" horiz-adv-x="700" 
d="M341 380l341 -381h-141l-269 312l-112 -112v-199h-104v709h104v-381l78 83l295 298h137z" />
    <glyph glyph-name="L" unicode="L" horiz-adv-x="513" 
d="M59 0v709h105v-612h328v-97h-433z" />
    <glyph glyph-name="M" unicode="M" horiz-adv-x="825" 
d="M660 709h105v-709h-104v544l-207 -285h-81l-208 285v-544h-105v709h105l248 -341z" />
    <glyph glyph-name="N" unicode="N" horiz-adv-x="725" 
d="M667 709v-709h-106l-396 544v-544h-109v709h110l396 -547v547h105z" />
    <glyph glyph-name="O" unicode="O" horiz-adv-x="767" 
d="M385 719q72 0 136 -29t111.5 -78.5t75.5 -116t28 -140.5q0 -75 -28 -141t-76 -115.5t-112 -78.5t-136 -29t-136 29t-111.5 78.5t-75 115.5t-27.5 141q0 74 27.5 140.5t75.5 116t112 78.5t136 29zM385 90q51 0 95.5 20.5t77.5 56.5t52 84.5t19 103.5t-19 103t-52 84
t-77.5 56.5t-95.5 20.5t-95.5 -20.5t-77.5 -56.5t-52.5 -84t-19.5 -103t19.5 -103.5t52.5 -84.5t77.5 -56.5t95.5 -20.5z" />
    <glyph glyph-name="P" unicode="P" horiz-adv-x="582" 
d="M342 709q42 0 79 -16t64.5 -43t43.5 -63.5t16 -78.5t-16 -79t-43.5 -64t-64.5 -42.5t-79 -15.5l-184 -1v-306h-104v709h288zM342 404q21 0 39.5 8.5t32.5 22.5t22 33.5t8 41.5t-8 41t-22 33.5t-32.5 23t-39.5 8.5h-184v-212h184z" />
    <glyph glyph-name="Q" unicode="Q" horiz-adv-x="794" 
d="M759 -9l-114 27l-50 49q-44 -34 -97 -55t-113 -21q-72 0 -136 29t-111.5 78.5t-75.5 115.5t-28 141q0 74 28 140.5t75.5 116t111.5 78.5t136 29t136 -29t112 -78.5t75.5 -116t27.5 -140.5q0 -63 -20 -118.5t-54 -100.5l39 -40l82 -23zM589 209q20 32 30.5 68.5t10.5 77.5
q0 55 -19.5 103t-52.5 84t-77.5 56.5t-95.5 20.5t-95.5 -20.5t-77.5 -56.5t-52 -84t-19 -103t19 -104t52 -85.5t77.5 -57.5t95.5 -21q39 0 74.5 13.5t65.5 36.5l-92 92l69 69z" />
    <glyph glyph-name="R" unicode="R" horiz-adv-x="656" 
d="M641 0h-131l-223 306h-124v-306h-105v709h288q42 0 79.5 -16t65 -43t43.5 -63.5t16 -78.5q0 -35 -11 -66t-30.5 -56t-46.5 -43.5t-59 -27.5zM346 404q21 0 40 8.5t32.5 22.5t21.5 33.5t8 41.5t-8 41t-21.5 33.5t-32.5 23t-40 8.5h-183v-213z" />
    <glyph glyph-name="S" unicode="S" horiz-adv-x="580" 
d="M529 199q0 -45 -18 -83.5t-53 -67.5q-69 -58 -177 -58q-84 0 -152 34.5t-100 92.5l89 46q20 -36 63.5 -55.5t99.5 -19.5q145 0 145 111q0 21 -7.5 36t-22.5 28q-36 30 -129 54q-56 14 -95 31t-65 40q-63 51 -63 135q0 42 16.5 78.5t46.5 63.5q31 27 72.5 40.5t91.5 13.5
q73 0 134.5 -28t93.5 -79l-81 -50q-29 35 -67 49.5t-80 14.5q-30 0 -55 -10t-42 -24q-14 -12 -20.5 -29.5t-6.5 -37.5q0 -13 4 -26.5t19 -28t44 -28t79 -26.5q60 -15 101 -32.5t69 -41.5q66 -54 66 -143z" />
    <glyph glyph-name="T" unicode="T" horiz-adv-x="522" 
d="M197 615h-192v94h489v-94h-193v-615h-104v615z" />
    <glyph glyph-name="U" unicode="U" horiz-adv-x="634" 
d="M577 251q0 -54 -20.5 -101.5t-55.5 -83t-82 -56t-101 -20.5t-101 20.5t-82 56t-55.5 83t-20.5 101.5v458h104v-458q0 -32 12 -61t33 -51.5t49.5 -35.5t60.5 -13t60 13t49 35.5t33 51.5t12 61v458h105v-458z" />
    <glyph glyph-name="V" unicode="V" 
d="M308 0l-294 709h113l239 -575l239 575h113l-294 -709h-116z" />
    <glyph glyph-name="W" unicode="W" horiz-adv-x="957" 
d="M824 709h117l-213 -709h-102l-132 441l-17 80l-18 -84l-131 -437h-103l-213 709h115l146 -540l165 540h79l163 -535z" />
    <glyph glyph-name="X" unicode="X" horiz-adv-x="684" 
d="M403 381l253 -381h-125l-190 286l-191 -286h-125l253 381l-218 328h125l156 -234l155 234h125z" />
    <glyph glyph-name="Y" unicode="Y" horiz-adv-x="627" 
d="M259 332l-250 377h125l177 -266l177 266h126l-250 -377v-332h-105v332z" />
    <glyph glyph-name="Z" unicode="Z" horiz-adv-x="605" 
d="M34 0v85l373 530h-340v94h466v-85l-367 -527h387v-97h-519z" />
    <glyph glyph-name="dieresis" unicode="&#xa8;" horiz-adv-x="437" 
d="M103 742q-26 0 -44 18.5t-18 44.5t18 44t44 18t44 -18t18 -44t-18 -44.5t-44 -18.5zM334 742q-26 0 -44 18.5t-18 44.5t18 44t44 18t44 -18t18 -44t-18 -44.5t-44 -18.5z" />
    <glyph glyph-name="Gbreve" unicode="&#x11e;" horiz-adv-x="703" 
d="M452 379h193v-260q-48 -57 -116 -93t-148 -36q-72 0 -136 29t-111 78.5t-74.5 115.5t-27.5 141q0 74 27.5 140.5t74.5 116t111 78.5t136 29q66 0 125 -26t106 -68l-62 -79q-33 35 -76.5 56.5t-92.5 21.5q-51 0 -95.5 -21.5t-77.5 -58.5t-52 -85.5t-19 -103.5t19 -103.5
t52 -85t77.5 -57.5t95.5 -21q47 0 88 18.5t73 49.5v127h-90v97zM381 751q-27 0 -51 10.5t-42 28.5t-28.5 42.5t-10.5 51.5h75q0 -23 17 -40t40 -17t40 17t17 40h76q0 -27 -10.5 -51.5t-28.5 -42.5t-42.5 -28.5t-51.5 -10.5z" />
    <glyph glyph-name="gbreve" unicode="&#x11f;" horiz-adv-x="591" 
d="M274 24q-50 0 -92 18.5t-73 51t-48.5 75t-17.5 90.5t17.5 90t48.5 73.5t73 49.5t92 18t87 -15t65 -43l20 47h76v-7.5v-17.5v-37v-66t0.5 -105t0.5 -153q0 -30 -2 -58.5t-8.5 -55t-19 -51t-33.5 -47.5q-40 -42 -90.5 -56.5t-106.5 -14.5q-48 0 -90.5 12t-76.5 32v108
q20 -29 62.5 -47t96.5 -18q36 0 67 9.5t54 29t36.5 50.5t13.5 74v19q-12 -11 -29.5 -21t-38 -17.5t-42.5 -12t-42 -4.5zM283 402q-29 0 -55 -11t-45.5 -30.5t-30.5 -45.5t-11 -56t11 -56.5t30.5 -46t45.5 -31t55 -11.5t55 9t45 27t30 45t11 64q0 39 -11 66.5t-30 44.5
t-45 24.5t-55 7.5zM301 576q-27 0 -51 10.5t-42 28.5t-28.5 42.5t-10.5 51.5h75q0 -23 17 -40t40 -17t40 17t17 40h76q0 -27 -10.5 -51.5t-28.5 -42.5t-42.5 -28.5t-51.5 -10.5z" />
    <glyph glyph-name="dotlessi" unicode="&#x131;" horiz-adv-x="232" 
d="M165 0h-97v479h96z" />
    <glyph glyph-name="Idotaccent" unicode="&#x130;" horiz-adv-x="335" 
d="M165 756q-26 0 -44 18.5t-18 44.5t18 44t44 18t44 -18t18 -44t-18 -44.5t-44 -18.5zM219 623v-537h52v-86h-209v86h53v537h-53v86h209v-86h-52z" />
    <glyph glyph-name="cedilla" unicode="&#xb8;" horiz-adv-x="319" 
d="M114 -79q-18 0 -34 -9l-29 28l87 125h49l-72 -112q47 9 70 -9t23 -48q0 -38 -28 -55.5t-66 -17.5q-11 0 -25 1t-24 3q2 8 4 17t4 17q5 -1 11 -1.5t14 -0.5q21 0 36.5 7.5t15.5 24.5q0 14 -9.5 22t-26.5 8z" />
    <glyph glyph-name="Scedilla" unicode="&#x15e;" horiz-adv-x="551" 
d="M268 -79q-18 0 -34 -9l-29 28l36 52q-73 7 -131 40t-86 85l89 46q20 -36 63.5 -55.5t99.5 -19.5q145 0 145 111q0 21 -7.5 36t-22.5 28q-36 30 -129 54q-56 14 -95 31t-65 40q-63 51 -63 135q0 42 16.5 78.5t46.5 63.5q31 27 72.5 40.5t91.5 13.5q73 0 134.5 -28
t93.5 -79l-81 -50q-29 35 -67 49.5t-80 14.5q-30 0 -55 -10t-42 -24q-14 -12 -20.5 -29.5t-6.5 -37.5q0 -13 4 -26.5t19 -28t44 -28t79 -26.5q60 -15 101 -32.5t69 -41.5q66 -54 66 -143q0 -45 -18 -83.5t-53 -67.5q-63 -52 -160 -57l-24 -38q47 9 70 -9t23 -48
q0 -38 -28 -55.5t-66 -17.5q-11 0 -25 1t-24 3q2 8 4 17t4 17q5 -1 11 -1.5t14 -0.5q21 0 36.5 7.5t15.5 24.5q0 14 -9.5 22t-26.5 8z" />
    <glyph glyph-name="scedilla" unicode="&#x15f;" horiz-adv-x="444" 
d="M215 -79q-18 0 -34 -9l-29 28l35 51q-28 3 -52.5 13t-44.5 25q-19 14 -31.5 33t-19.5 39l82 37q8 -17 15 -25t14 -13q13 -11 31 -16.5t38 -5.5q40 0 67 22q11 9 19 22.5t3 28.5q-4 13 -16 22.5t-28 15.5t-32 9.5t-27 6.5q-33 8 -62 19.5t-50.5 28t-34 39t-12.5 53.5
q0 29 15.5 57t41.5 48q23 18 53.5 27.5t62.5 9.5t62.5 -9.5t53.5 -27.5q21 -16 34 -38t18 -45l-87 -21q-6 24 -26 40.5t-55 16.5q-18 0 -36 -8t-30 -22q-11 -12 -9 -29t16 -28q15 -11 31.5 -16t33.5 -10q46 -11 74 -22t48 -24q32 -19 46 -44.5t14 -58.5q0 -32 -16.5 -64.5
t-48.5 -52.5q-44 -28 -102 -34l-24 -37q47 9 70 -9t23 -48q0 -38 -28 -55.5t-66 -17.5q-11 0 -25 1t-24 3q2 8 4 17t4 17q5 -1 11 -1.5t14 -0.5q21 0 36.5 7.5t15.5 24.5q0 14 -9.5 22t-26.5 8z" />
    <glyph glyph-name="Ccedilla" unicode="&#xc7;" horiz-adv-x="663" 
d="M359 -79q-18 0 -34 -9l-29 28l36 52q-66 7 -123.5 38t-100 80t-66.5 111.5t-24 132.5q0 75 27.5 141t74.5 115.5t111 78.5t136 29q67 0 126.5 -26.5t106.5 -69.5l-62 -79q-33 35 -77 57.5t-94 22.5q-51 0 -95.5 -21.5t-77.5 -58.5t-52.5 -85.5t-19.5 -103.5t19.5 -103.5
t52.5 -85t77.5 -57.5t95.5 -21q58 0 107.5 28t83.5 74l73 -70q-46 -54 -109.5 -89t-137.5 -39l-24 -38q47 9 70 -9t23 -48q0 -38 -28 -55.5t-66 -17.5q-11 0 -25 1t-24 3q2 8 4 17t4 17q5 -1 11 -1.5t14 -0.5q21 0 36.5 7.5t15.5 24.5q0 14 -9.5 22t-26.5 8z" />
    <glyph glyph-name="ccedilla" unicode="&#xe7;" horiz-adv-x="500" 
d="M273 -79q-18 0 -34 -9l-29 28l35 51q-43 7 -80 28.5t-64 54.5t-42.5 75.5t-15.5 89.5q0 52 19 98t51.5 80t76 53.5t93.5 19.5q58 0 107 -26t82 -71l-68 -53q-20 29 -50.5 46.5t-65.5 17.5q-30 0 -57 -13t-47 -35.5t-31.5 -52.5t-11.5 -64t11.5 -64t31.5 -52.5t47 -35.5
t57 -13q39 0 71 21t52 56l66 -58q-31 -46 -77.5 -73.5t-103.5 -30.5l-22 -36q47 9 70 -9t23 -48q0 -38 -28 -55.5t-66 -17.5q-11 0 -25 1t-24 3q2 8 4 17t4 17q5 -1 11 -1.5t14 -0.5q21 0 36.5 7.5t15.5 24.5q0 14 -9.5 22t-26.5 8z" />
    <glyph glyph-name="Odieresis" unicode="&#xd6;" horiz-adv-x="767" 
d="M383 719q72 0 136 -29t111.5 -78.5t75.5 -116t28 -140.5q0 -75 -28 -141t-76 -115.5t-112 -78.5t-136 -29t-136 29t-111.5 78.5t-75 115.5t-27.5 141q0 74 27.5 140.5t75.5 116t112 78.5t136 29zM383 90q51 0 95.5 20.5t77.5 56.5t52 84.5t19 103.5t-19 103t-52 84
t-77.5 56.5t-95.5 20.5t-95.5 -20.5t-77.5 -56.5t-52.5 -84t-19.5 -103t19.5 -103.5t52.5 -84.5t77.5 -56.5t95.5 -20.5zM268 756q-26 0 -44 18.5t-18 44.5t18 44t44 18t44 -18t18 -44t-18 -44.5t-44 -18.5zM499 756q-26 0 -44 18.5t-18 44.5t18 44t44 18t44 -18t18 -44
t-18 -44.5t-44 -18.5z" />
    <glyph glyph-name="Udieresis" unicode="&#xdc;" horiz-adv-x="638" 
d="M578 251q0 -54 -20.5 -101.5t-55.5 -83t-82 -56t-101 -20.5t-101 20.5t-82 56t-55.5 83t-20.5 101.5v458h104v-458q0 -32 12 -61t33 -51.5t49.5 -35.5t60.5 -13t60 13t49 35.5t33 51.5t12 61v458h105v-458zM204 756q-26 0 -44 18.5t-18 44.5t18 44t44 18t44 -18t18 -44
t-18 -44.5t-44 -18.5zM435 756q-26 0 -44 18.5t-18 44.5t18 44t44 18t44 -18t18 -44t-18 -44.5t-44 -18.5z" />
    <glyph glyph-name="odieresis" unicode="&#xf6;" horiz-adv-x="540" 
d="M271 -12q-50 0 -93.5 19.5t-76 53.5t-51.5 80t-19 98t19 98t51.5 80t76 53.5t93.5 19.5q49 0 93 -19.5t76.5 -53.5t51.5 -80t19 -98t-19 -98t-51.5 -80t-76.5 -53.5t-93 -19.5zM271 403q-29 0 -55 -13t-45.5 -35t-30.5 -52t-11 -64t11 -64t30.5 -52.5t45.5 -35.5t55 -13
t55 13t45 35.5t30 52.5t11 64t-11 64t-30 52t-45 35t-55 13zM158 584q-26 0 -44 18.5t-18 44.5t18 44t44 18t44 -18t18 -44t-18 -44.5t-44 -18.5zM389 584q-26 0 -44 18.5t-18 44.5t18 44t44 18t44 -18t18 -44t-18 -44.5t-44 -18.5z" />
    <glyph glyph-name="udieresis" unicode="&#xfc;" horiz-adv-x="542" 
d="M380 43q-25 -23 -58.5 -38t-74.5 -15q-26 0 -59 7.5t-61.5 29.5t-48 60.5t-19.5 100.5v291h92v-291q0 -31 9.5 -52.5t25 -34.5t35.5 -19t41 -6q16 0 36.5 6t38.5 19.5t30.5 34.5t12.5 51v292h97v-479h-77zM154 584q-26 0 -44 18.5t-18 44.5t18 44t44 18t44 -18t18 -44
t-18 -44.5t-44 -18.5zM385 584q-26 0 -44 18.5t-18 44.5t18 44t44 18t44 -18t18 -44t-18 -44.5t-44 -18.5z" />
    <glyph glyph-name="comma" unicode="," horiz-adv-x="292" 
d="M124 -128h-81l33 246h113z" />
    <glyph glyph-name="space" unicode=" " horiz-adv-x="261" 
 />
    <glyph glyph-name="quotesingle.001" horiz-adv-x="833" 
 />
    <glyph glyph-name="quotesingle" unicode="'" horiz-adv-x="260" 
d="M165 463h-78l-12 246h110z" />
    <glyph glyph-name="quotedbl" unicode="&#x22;" horiz-adv-x="380" 
d="M138 462h-80l-16 245h112zM321 462h-80l-16 245h113z" />
    <glyph glyph-name="numbersign" unicode="#" 
d="M712 498v-67h-160l-35 -207h152v-67h-163l-27 -165l-65 11l25 152h-203l-27 -163l-65 11l25 151h-149v67h160l35 207h-152v67h163l27 165l65 -11l-25 -152h203l28 163l65 -11l-26 -152zM485 430h-203l-35 -207h203z" />
    <glyph glyph-name="dollar" unicode="$" horiz-adv-x="494" 
d="M158 108q27 -13 62 -16v211q-42 11 -71 24q-35 15 -59 36q-57 46 -57 123q0 38 15 71q16 35 42 58q30 26 66 37q32 10 64 11v77h65v-79q43 -6 77 -22q55 -26 84 -72l-73 -45q-28 32 -61 44q-7 3 -13.5 4.5t-13.5 3.5v-192q20 -5 36 -11t30 -12q19 -8 34.5 -17t28.5 -20
q60 -50 60 -130q0 -40 -17 -76t-48 -61q-25 -22 -56 -34t-68 -17v-86h-65v85q-59 4 -110 30q-62 32 -90 83l80 42q17 -31 58 -50zM285 93q95 12 95 98q0 20 -7 33q-5 12 -20 25q-11 9 -28 17.5t-40 16.5v-190zM188 413q7 -3 14.5 -6t17.5 -6v177q-8 -1 -15.5 -3t-15.5 -4
q-11 -5 -20.5 -10.5t-17.5 -11.5q-12 -11 -18 -27q-6 -17 -6 -34q0 -12 3 -24q5 -13 18 -26q7 -6 16.5 -12.5t23.5 -12.5z" />
    <glyph glyph-name="percent" unicode="%" horiz-adv-x="690" 
d="M354 140q0 31 12 59t32.5 48.5t48 32.5t59.5 12q31 0 59 -12t49 -32.5t33 -48.5t12 -59q0 -32 -12 -59.5t-33 -48t-49 -32.5t-59 -12q-32 0 -59.5 12t-48 32.5t-32.5 48t-12 59.5zM506 226q-18 0 -33.5 -6.5t-27 -18.5t-18.5 -27.5t-7 -33.5t7 -34t18.5 -27.5t27 -18.5
t33.5 -7q36 0 61.5 25.5t25.5 61.5t-25.5 61t-61.5 25zM181 410q-32 0 -59.5 12t-48 32.5t-32.5 48t-12 59.5q0 31 12 59t32.5 49t48 33t59.5 12q31 0 59 -12t49 -33t33 -49t12 -59q0 -32 -12 -59.5t-33 -48t-49 -32.5t-59 -12zM181 649q-18 0 -33.5 -7t-27 -18.5
t-18.5 -27.5t-7 -34t7 -33.5t18.5 -27t27 -18.5t33.5 -7t34 7t27.5 18.5t18.5 27t7 33.5q0 36 -25.5 61.5t-61.5 25.5zM534 736l57 -34l-431 -727l-57 34z" />
    <glyph glyph-name="ampersand" unicode="&#x26;" horiz-adv-x="667" 
d="M447 513q-3 -19 -14.5 -37t-28.5 -35.5t-39 -35.5t-44 -37q20 -22 39 -44t39 -43l75 -81q28 26 54.5 55.5t51.5 61.5l72 -64q-28 -35 -56 -65t-60 -59l120 -131h-129q-11 11 -20.5 21t-17.5 20l-26 30q-2 -2 -3.5 -2.5t-3.5 -2.5q-22 -16 -43.5 -31t-46.5 -26.5
t-55 -18.5t-68 -7q-39 0 -75.5 12t-64 35t-44.5 56.5t-17 77.5q0 37 11 68t30 57.5t44 49.5t53 44q-30 35 -61 68.5t-61 67.5v7q0 42 17.5 78.5t45.5 63t64 41.5t74 15q36 0 70.5 -14t61 -38t43 -56t16.5 -69q0 -8 -1 -16zM304 85q51 21 95 53l-52 58l-52 58l-53 58
q-19 -14 -37 -30t-32.5 -34t-23 -38.5t-8.5 -43.5q0 -49 28.5 -72t69.5 -23q17 0 34 4t31 10zM351 540q0 17 -7.5 33t-20 28.5t-29 20t-34.5 7.5q-35 0 -63 -24.5t-36 -61.5l96 -106q14 10 27.5 21t25.5 21q1 1 6.5 5.5t6.5 5.5q12 10 19 19t9 26v5z" />
    <glyph glyph-name="asterisk" unicode="*" horiz-adv-x="414" 
d="M173 514l-153 27l24 78l140 -57l-18 145h82l-17 -143l139 55l24 -78l-144 -29l103 -113l-65 -49l-81 140l-79 -139l-66 48z" />
    <glyph glyph-name="plus" unicode="+" horiz-adv-x="519" 
d="M301 546v-219h210v-66h-210v-219h-4h-62h-12v219h-215v66h215v219h12h62h4v0z" />
    <glyph glyph-name="hyphen" unicode="-" horiz-adv-x="385" 
d="M46 327h294v-66h-294v66z" />
    <glyph glyph-name="slash" unicode="/" horiz-adv-x="500" 
d="M437 736l57 -34l-431 -727l-57 34z" />
    <glyph glyph-name="less" unicode="&#x3c;" horiz-adv-x="482" 
d="M6 277l432 209v-73l-357 -172l357 -173v-73l-432 209v73z" />
    <glyph glyph-name="equal" unicode="=" horiz-adv-x="518" 
d="M46 434h426v-66h-426v66zM472 161h-426v65h426v-65z" />
    <glyph glyph-name="greater" unicode="&#x3e;" horiz-adv-x="484" 
d="M46 486l432 -209v-73l-432 -209v73l356 173l-356 172v73z" />
    <glyph glyph-name="bracketleft" unicode="[" horiz-adv-x="269" 
d="M46 809h206v-66h-140v-821h140v-66h-206v953z" />
    <glyph glyph-name="backslash" unicode="\" horiz-adv-x="500" 
d="M63 738l431 -728l-57 -33l-431 727z" />
    <glyph glyph-name="bracketright" unicode="]" horiz-adv-x="261" 
d="M10 809h206v-953h-206v66h140v821h-140v66z" />
    <glyph glyph-name="asciicircum" unicode="^" horiz-adv-x="418" 
d="M22 397l150 312h74l150 -312h-73l-114 236l-114 -236h-73z" />
    <glyph glyph-name="underscore" unicode="_" horiz-adv-x="592" 
d="M46 0h500v-66h-500v66z" />
    <glyph glyph-name="at" unicode="@" horiz-adv-x="814" 
d="M404 710q85 0 156 -29t121 -81q45 -51 69.5 -117t24.5 -144v-18q-2 -44 -11 -74t-21.5 -50.5t-26.5 -32t-25 -17.5q-25 -13 -51 -13q-35 0 -72 23q-14 9 -25 20t-19 24q-25 -29 -58 -44.5t-75 -15.5q-39 0 -74 15t-60.5 40.5t-40.5 60t-15 73.5q0 40 15 74.5t40.5 60.5
t60.5 41t74 15q35 0 65.5 -13t54.5 -35l24 36l53 -4l-17 -200v-8q0 -29 12.5 -48.5t26.5 -29.5q17 -10 30 -10q8 0 18 4q18 10 29 38.5t13 71.5v8q0 2 0.5 4t0.5 4q0 82 -26 138.5t-68.5 91.5t-95.5 50.5t-107 15.5q-60 0 -114 -24.5t-94.5 -66t-64 -96.5t-23.5 -117
q0 -61 21 -113t58.5 -91t89 -63t113.5 -29q7 -1 13.5 -1h12.5q30 0 60.5 6t59.5 19l30 -69q-36 -16 -74 -23.5t-76 -7.5q-5 0 -11 0.5t-14 1.5h-6q-78 6 -142.5 36t-111 79t-72.5 114t-26 141q0 75 27.5 143.5t80.5 122.5q54 55 121.5 84t141.5 29zM391 216q45 0 74 32
t29 82q0 51 -29 83.5t-74 32.5q-24 0 -44.5 -9.5t-36.5 -25t-25 -36.5t-9 -45t9 -44.5t25 -36t36.5 -24.5t44.5 -9z" />
    <glyph glyph-name="braceleft" unicode="{" horiz-adv-x="309" 
d="M213 498q0 -23 -1.5 -45.5t-12.5 -43.5q-14 -27 -37.5 -46t-51.5 -27q6 0 14 -5.5t13 -7.5q6 -4 12 -7.5t11 -8.5q18 -17 31 -39t17.5 -45t4.5 -48v-195q0 -27 14 -50t51 -23v-58q-27 0 -51 10.5t-41.5 28t-28 41.5t-10.5 51v214q0 5 -4 22t-18.5 35.5t-43 34.5t-77.5 19
v66q50 3 78.5 16.5t43 29t18 29t3.5 15.5v220q0 27 10.5 51t28 41.5t41.5 28t51 10.5v-58q-34 0 -49.5 -23t-15.5 -50v-183z" />
    <glyph glyph-name="bar" unicode="|" horiz-adv-x="156" 
d="M46 795h66v-946h-66v946z" />
    <glyph glyph-name="braceright" unicode="}" horiz-adv-x="308" 
d="M95 164q0 23 1.5 45t12.5 43q6 11 16 23.5t22 23.5t25.5 18.5t25.5 7.5q-5 0 -14 5.5t-13 7.5l-12 8t-11 9q-20 18 -31 39q-14 23 -18.5 49t-4.5 53q0 23 0.5 46.5t0.5 46.5v92q0 27 -14 50t-51 23v58q27 0 51 -10.5t41.5 -28t28 -41.5t10.5 -51v-214q0 -5 4 -21.5
t18 -35.5t42.5 -34.5t78.5 -18.5v-67q-50 -2 -79 -15.5t-43 -29.5t-17.5 -29.5t-3.5 -15.5v-220q0 -27 -10.5 -51t-28 -41.5t-41.5 -28t-51 -10.5v58q34 0 49.5 23t15.5 50v184z" />
    <glyph glyph-name="asciitilde" unicode="~" horiz-adv-x="577" 
d="M384 290q22 0 44 8.5t39.5 18.5t29 19l11.5 9l21 -19q5 -5 12 -11.5t6 -7.5q-5 -5 -20 -19t-36.5 -28t-49 -25t-57.5 -11q-35 0 -58 13t-43 27q-19 14 -38 24t-48 10q-32 0 -62 -16.5t-47 -45.5l-57 33q1 1 11.5 16.5t31 32.5t51 31.5t72.5 14.5q45 0 74 -15.5t51 -31.5
l4 -3q15 -11 28 -17.5t30 -6.5z" />
    <glyph glyph-name="_127" horiz-adv-x="500" 
 />
    <glyph glyph-name="grave" unicode="`" horiz-adv-x="198" 
d="M140 709l24 -178h-79l-56 178h111z" />
    <glyph glyph-name="bullet" unicode="&#x2022;" horiz-adv-x="296" 
d="M66 196q-33 33 -33 80q0 49 33 81q34 33 82 33q47 0 82 -33q33 -32 33 -81q0 -48 -33 -79q-35 -33 -82 -33t-82 32z" />
    <glyph glyph-name="paragraph" unicode="&#xb6;" horiz-adv-x="587" 
d="M557 709v-74h-89v-790h-74v790h-105v-790h-74v478q-40 0 -75 15t-61.5 41.5t-41.5 61.5t-15 75t15 75t41.5 61t61.5 41.5t75 15.5h342z" />
    <glyph glyph-name="registered" unicode="&#xae;" horiz-adv-x="816" 
d="M506 332q-14 -10 -31 -16l115 -153l-58 -18l-121 167h-68v-167h-57v387h157q23 0 43 -9q21 -9 36 -24t24 -34q4 -11 6.5 -21.5t2.5 -21.5q0 -21 -7 -36q-2 -8 -6.5 -16t-9.5 -15q-11 -14 -26 -23zM443 365q10 0 22 5q10 4 18 12q3 5 6 9t5 9q5 12 5 23q0 12 -5 22
q-2 5 -5 10t-6 9q-6 6 -18 13q-5 2 -10.5 3t-11.5 1h-100v-116h100zM408 677q70 0 131.5 -26.5t107.5 -72.5t72.5 -108t26.5 -132t-26.5 -131.5t-72.5 -107.5t-107.5 -72.5t-131.5 -26.5t-131.5 26.5t-107.5 72.5t-72.5 107.5t-26.5 131.5t26.5 132t72.5 108t107.5 72.5
t131.5 26.5zM408 59q58 0 108.5 22t88.5 60t60 88.5t22 108.5t-22 109t-60 89t-88.5 60t-108.5 22t-109 -22t-89 -60t-60 -89t-22 -109t22 -108.5t60 -88.5t89 -60t109 -22z" />
    <glyph glyph-name="copyright" unicode="&#xa9;" horiz-adv-x="817" 
d="M478 208q14 8 25.5 17.5t19.5 22.5l41 -38q-14 -15 -29.5 -28t-34.5 -23q-38 -20 -80 -20q-38 0 -75 16q-34 16 -60 44q-28 28 -42 63q-15 36 -15 76q0 41 15 77t42 63q27 29 60 43q33 16 75 16q35 0 68 -14q33 -15 59 -38l-35 -43q-16 18 -41 31q-24 12 -51 12
q-28 0 -52 -12q-23 -10 -43 -31q-17 -20 -29 -47q-10 -26 -10 -57t10 -57q13 -27 29 -46q20 -21 43 -31q24 -12 52 -12q29 0 58 16zM409 677q70 0 131.5 -26.5t107.5 -72.5t72.5 -108t26.5 -132t-26.5 -131.5t-72.5 -107.5t-107.5 -72.5t-131.5 -26.5t-132 26.5t-108 72.5
t-72.5 107.5t-26.5 131.5t26.5 132t72.5 108t108 72.5t132 26.5zM409 59q58 0 108.5 22t88.5 60t60 88.5t22 108.5t-22 109t-60 89t-88.5 60t-108.5 22t-109 -22t-89 -60t-60 -89t-22 -109t22 -108.5t60 -88.5t89 -60t109 -22z" />
    <glyph glyph-name="trademark" unicode="&#x2122;" horiz-adv-x="658" 
d="M108 654h-79v55h218v-55h-80v-253h-59v253zM541 709h56v-308h-61v207l-72 -100h-41l-74 100v-207h-59v308h55l98 -134z" />
    <glyph glyph-name="acute" unicode="&#xb4;" horiz-adv-x="196" 
d="M176 709l-56 -178h-79l24 178h111z" />
    <glyph glyph-name="notequal" unicode="&#x2260;" horiz-adv-x="519" 
d="M46 434h426v-66h-426v66zM472 161h-426v65h426v-65z" />
    <glyph glyph-name="AE" unicode="&#xc6;" horiz-adv-x="900" 
d="M114 0h-114l297 709h543v-94h-329v-193h293v-97h-293v-228h329v-97h-433v222h-201zM407 318v297h-38l-123 -297h161z" />
    <glyph glyph-name="sterling" unicode="&#xa3;" horiz-adv-x="536" 
d="M343 93q18 0 38 6.5t37.5 15t31.5 17.5t22 15l57 -72q-2 -1 -18.5 -13t-42.5 -25.5t-58.5 -25t-66.5 -11.5h-276l3 48q0 2 0.5 4t0.5 6t0.5 8.5t0.5 9.5l5 62l10 138h-67v92h72q1 17 1.5 35t1 34.5t1 29.5t0.5 21q0 69 21 112.5t51.5 67.5t64 33t58.5 9q51 0 87.5 -20
t61 -48.5t38 -60t18.5 -55.5l-91 -17q-1 4 -6 21.5t-18 37t-34.5 35t-55.5 15.5q-20 0 -38.5 -7.5t-33 -23.5t-23.5 -40.5t-9 -58.5q0 -16 -1.5 -50.5t-3.5 -69.5h195v-92h-201l-4 -74l-3 -52q-1 -16 -1 -31.5t-1 -25.5h176v0z" />
    <glyph glyph-name="cent" unicode="&#xa2;" horiz-adv-x="452" 
d="M322 180q31 22 50 54l63 -55q-31 -46 -79 -73q-33 -19 -73 -25v-75h-74v76q-25 4 -49 15q-41 18 -72 51q-32 35 -49 76q-18 45 -18 94t18 93q9 23 21.5 41.5t27.5 35.5q16 16 34 29t38 22q24 11 49 15v99h74v-98q37 -6 69 -22q48 -26 78 -68l-65 -51q-20 28 -48 45
q-15 8 -34 13v-308q11 2 20.5 6.5t18.5 9.5zM200 173q3 -2 9 -4v298q-6 -2 -9 -4q-24 -11 -45 -34q-19 -21 -30 -50q-11 -30 -11 -61t11 -61q11 -29 30 -50q19 -22 45 -34z" />
    <glyph glyph-name="degree" unicode="&#xb0;" horiz-adv-x="368" 
d="M184 660q31 0 59 -12t48.5 -32.5t32.5 -48.5t12 -59q0 -32 -12 -59.5t-32.5 -48.5t-48.5 -33t-59 -12q-32 0 -59.5 12t-48 33t-32.5 48.5t-12 59.5q0 31 12 59t32.5 48.5t48 32.5t59.5 12zM184 421q36 0 61.5 25.5t25.5 61.5q0 18 -7 33.5t-18.5 27t-27.5 18.5t-34 7
t-33.5 -7t-27.5 -18.5t-18.5 -27t-6.5 -33.5q0 -36 25 -61.5t61 -25.5z" />
    <glyph glyph-name="questiondown" unicode="&#xbf;" horiz-adv-x="463" 
d="M313 365q-26 0 -44 18.5t-18 44.5t18 44t44 18t44 -18t18 -44t-18 -44.5t-44 -18.5zM287 -144q35 0 63 6.5t54 28.5l15 -93q-59 -36 -132 -36q-51 0 -95.5 18t-77.5 48.5t-52 71.5t-19 87q0 113 113 181q18 11 37.5 19t36 20t27 30t10.5 48v31h96v-36q0 -47 -18.5 -78.5
t-44.5 -52.5t-53 -34t-45 -21q-31 -14 -46 -45t-15 -64q0 -27 11.5 -50.5t31 -41t46.5 -27.5t57 -10z" />
    <glyph glyph-name="exclamdown" unicode="&#xa1;" horiz-adv-x="281" 
d="M184 316l13 -545h-113l12 545h88zM140 490q26 0 44.5 -18t18.5 -44t-18.5 -44.5t-44.5 -18.5t-44 18.5t-18 44.5t18 44t44 18z" />
    <glyph glyph-name="logicalnot" unicode="&#xac;" horiz-adv-x="515" 
d="M6 414h463v-263h-66v197h-397v66z" />
    <glyph glyph-name="quoteright" unicode="&#x2019;" horiz-adv-x="205" 
d="M177 709l-65 -245h-80l33 245h112z" />
    <glyph glyph-name="quoteright001" unicode="&#x2018;" horiz-adv-x="196" 
d="M53 463l-33 245h80l65 -245h-112z" />
    <glyph glyph-name="quotedblleft" unicode="&#x201c;" horiz-adv-x="374" 
d="M223 463l-33 245h80l65 -245h-112zM65 463l-33 245h80l65 -245h-112z" />
    <glyph glyph-name="quotedblright" unicode="&#x201d;" horiz-adv-x="373" 
d="M184 709l-65 -245h-80l33 245h112zM341 709l-65 -245h-80l33 245h112z" />
    <glyph glyph-name="Adieresis" unicode="&#xc4;" 
d="M125 0h-114l295 709h115l295 -709h-113l-93 222h-293zM257 318h213l-106 256zM250 757q-26 0 -44 18.5t-18 44.5t18 44t44 18t44 -18t18 -44t-18 -44.5t-44 -18.5zM481 757q-26 0 -44 18.5t-18 44.5t18 44t44 18t44 -18t18 -44t-18 -44.5t-44 -18.5z" />
    <glyph glyph-name="adieresis" unicode="&#xe4;" horiz-adv-x="553" 
d="M510 479v-479h-82l-15 55q-25 -33 -64 -50t-79 -17q-50 0 -93.5 19.5t-76 53.5t-51.5 80t-19 98t19 98t51.5 80t76 53.5t93.5 19.5q40 0 77 -15.5t66 -48.5l15 53h82zM270 74q29 0 55 13t45 35.5t30 52.5t11 64t-11 64t-30 52.5t-45 35.5t-55 13t-55 -13t-45 -35.5
t-30 -52.5t-11 -64t11 -64t30 -52.5t45 -35.5t55 -13zM166 584q-26 0 -44 18.5t-18 44.5t18 44t44 18t44 -18t18 -44t-18 -44.5t-44 -18.5zM397 584q-26 0 -44 18.5t-18 44.5t18 44t44 18t44 -18t18 -44t-18 -44.5t-44 -18.5z" />
    <glyph glyph-name="zero.taboldstyle" horiz-adv-x="561" 
d="M280 -10q-49 0 -94 18t-79.5 50.5t-55 77t-20.5 97.5v10q0 53 19.5 98.5t53 78.5t79 52t97.5 19q53 0 99 -19.5t79.5 -53t53 -78.5t19.5 -97v-10q0 -51 -20 -95.5t-54 -77t-80 -51.5t-97 -19zM133 239q0 -23 10.5 -49.5t29.5 -49t46 -37t61 -14.5q25 0 51 9t48 27.5
t36 46.5t14 66q0 39 -14 68t-35.5 48t-48 28.5t-51.5 9.5t-51 -10t-47.5 -29t-35 -48t-13.5 -66z" />
    <glyph glyph-name="one.taboldstyle" horiz-adv-x="258" 
d="M110 384h-95v94h200v-478h-105v384z" />
    <glyph glyph-name="two.taboldstyle" horiz-adv-x="513" 
d="M49 0v60q83 40 149 81q28 18 55 37.5t48 40t34 41t13 40.5q0 48 -28 75t-75 27q-48 0 -75.5 -28.5t-27.5 -66.5h-102q0 37 15.5 70.5t43 58.5t65 39.5t81.5 14.5q45 0 82.5 -14.5t64.5 -39.5t42 -58.5t15 -70.5q0 -45 -18 -79t-44 -59.5t-56.5 -43.5t-55.5 -31h196v-94
h-422z" />
    <glyph glyph-name="six.taboldstyle" horiz-adv-x="531" 
d="M266 -10q-51 0 -95.5 19.5t-77.5 53t-52 78t-19 95.5q0 35 10.5 67t26.5 64q4 7 14 26t23.5 44.5t29.5 55.5t33 60q39 70 85 156h110l-131 -239q52 13 100.5 4t84.5 -35q48 -34 75.5 -87.5t27.5 -115.5q0 -51 -19.5 -95.5t-52.5 -78t-77.5 -53t-95.5 -19.5zM155 336
q-13 -26 -24 -54t-11 -46q0 -30 11.5 -57t31.5 -47t46.5 -32t56.5 -12t57 12t46.5 32t31 47t11.5 57q0 38 -16 70.5t-45 52.5q-18 13 -42.5 20.5t-51 6.5t-52.5 -11t-47 -33z" />
    <glyph glyph-name="eight.taboldstyle" horiz-adv-x="511" 
d="M30 216q0 52 23.5 97.5t68.5 72.5q-33 26 -48 60.5t-15 72.5q0 40 15.5 76t42.5 63.5t63 43.5t76 16t75.5 -16t62.5 -43.5t42.5 -63.5t15.5 -76q0 -38 -16.5 -72.5t-45.5 -60.5q19 -12 36 -30.5t29 -41t19 -47.5t7 -51q0 -46 -18 -87t-49 -72t-71.5 -49t-86.5 -18t-87 18
t-72 49t-49 72t-18 87zM256 621q-20 0 -37 -8.5t-30 -22.5t-20 -32.5t-7 -38.5q0 -28 14 -50.5t37 -34.5q19 -10 43 -10t43 10q23 12 36.5 34.5t13.5 50.5q0 20 -7 38.5t-20 32.5t-30 22.5t-36 8.5zM210 330q-34 -14 -54.5 -44.5t-20.5 -69.5q0 -25 9.5 -48t25.5 -41
t38 -28.5t48 -10.5q25 0 47 10.5t38 28.5t25.5 41t9.5 48q0 39 -20.5 69.5t-53.5 44.5q-23 9 -46 9q-25 0 -46 -9z" />
    <glyph glyph-name="three.taboldstyle" horiz-adv-x="526" 
d="M318 234q47 -4 80.5 -24t55.5 -50.5t32 -69t10 -78.5q0 -50 -19.5 -95.5t-52.5 -80t-77 -55.5t-94 -21q-41 0 -78 13.5t-67 37t-53 55.5t-35 68l92 35q7 -23 21 -43.5t33.5 -35.5t43 -23t49.5 -7q28 1 53 13.5t43.5 33t30 46t12.5 54.5q1 30 -9.5 57t-30 47.5t-45.5 33
t-56 13.5q-10 0 -20 -2t-20 -5l-39 50l124 184h-214v94h349v-67q-34 -50 -60 -89q-11 -17 -22 -32.5t-19 -28.5t-13 -20.5z" />
    <glyph glyph-name="four.taboldstyle" horiz-adv-x="594" 
d="M38 -100l-33 51l371 528h83v-485h114v-94h-114v-130h-105v130h-316zM155 -6h197v285z" />
    <glyph glyph-name="five.taboldstyle" horiz-adv-x="518" 
d="M247 -140q30 0 56.5 11.5t46.5 31.5t31.5 46.5t11.5 56.5q0 38 -16.5 70.5t-45.5 52.5q-12 9 -29.5 15.5t-38 8.5t-42 0t-41.5 -11q-22 -10 -38 -26l-60 40l37 323h310v-94h-223l-16 -152q53 17 107 10t91 -34q49 -34 76 -87.5t27 -115.5q0 -51 -19 -95.5t-52 -78
t-77.5 -53t-95.5 -19.5q-58 0 -107.5 26t-83.5 68q-20 23 -33 55l86 49q7 -23 23 -42q20 -26 50 -41t65 -15z" />
    <glyph glyph-name="seven.taboldstyle" horiz-adv-x="446" 
d="M304 385h-274v94h407v-1v-47l-275 -661h-113z" />
    <glyph glyph-name="nine.taboldstyle" horiz-adv-x="532" 
d="M124 43q-48 35 -75.5 88.5t-27.5 114.5q0 51 19.5 95t52.5 76.5t77.5 51.5t95.5 19q50 0 94.5 -19t77.5 -51.5t52.5 -76.5t19.5 -95q0 -35 -11 -67t-27 -64q-4 -8 -14 -27t-24 -44.5t-30.5 -56t-33.5 -60.5q-40 -71 -87 -157h-109l135 243q-52 -13 -100.5 -4.5
t-84.5 34.5zM266 392q-30 0 -57 -11.5t-47 -31t-31.5 -46.5t-11.5 -57q0 -38 16.5 -70.5t45.5 -52.5q18 -13 42.5 -20.5t50.5 -6.5t52 11t47 33l4 6q13 26 24 54t11 46q0 30 -11.5 57t-31.5 46.5t-46.5 31t-56.5 11.5z" />
    <glyph glyph-name="zero.titling" horiz-adv-x="580" 
d="M285 -10q-52 0 -97.5 25t-79 67.5t-53 100.5t-19.5 124v87q0 72 18 132t51 102.5t78.5 66t101.5 23.5q55 0 101 -23.5t79 -66.5t51.5 -102.5t18.5 -131.5v-87q0 -69 -19.5 -127t-53 -100.5t-79.5 -66t-98 -23.5zM138 307q0 -46 11 -86t31 -69t46.5 -46t58.5 -17
q33 0 60 16t46.5 44.5t30.5 68.5t11 89v87q0 103 -38.5 164t-109.5 61t-109 -59.5t-38 -165.5v-87z" />
    <glyph glyph-name="one.titling" horiz-adv-x="299" 
d="M124 615h-95v94h200v-709h-105v615z" />
    <glyph glyph-name="two.titling" horiz-adv-x="551" 
d="M45 0v70l204 232q46 55 73 86t41 50t18 33t4 36q0 56 -33 84.5t-80 28.5q-24 0 -44.5 -9.5t-36 -25.5t-24.5 -36t-9 -42h-102q0 43 17 81.5t46.5 67.5t68.5 46t84 17t84 -17t68 -46t46 -67.5t17 -81.5q0 -32 -8.5 -63t-27.5 -53l-251 -294h302v-97h-457z" />
    <glyph glyph-name="three.titling" horiz-adv-x="540" 
d="M330 464q46 -4 80 -24t55.5 -50t32 -67.5t10.5 -77.5q0 -51 -19 -97t-52 -81t-77 -56t-95 -21q-41 0 -78 13.5t-67 37t-53 55t-35 68.5l92 35q14 -45 52 -77t89 -32q29 0 55 12t45.5 32t31.5 47t13 56q0 30 -10.5 57t-29.5 47.5t-44.5 33t-56.5 13.5q-10 0 -20 -2t-20 -5
l-39 50l124 184h-214v94h349v-67q-34 -50 -60 -89q-11 -17 -22 -32.5t-19 -28.5t-13 -20.5z" />
    <glyph glyph-name="four.titling" horiz-adv-x="642" 
d="M76 130l-33 51l371 528h83v-485h114v-94h-114v-130h-105v130h-316zM193 224h197v285z" />
    <glyph glyph-name="five.titling" horiz-adv-x="538" 
d="M243 90q30 0 56.5 11.5t46.5 31.5t31.5 46.5t11.5 56.5t-10 56.5t-29.5 47t-47 32.5t-63.5 12q-27 0 -53.5 -8.5t-47.5 -29.5l-60 40l37 323h310v-94h-223l-16 -152q37 12 76 12q52 0 93.5 -20t71 -53.5t45 -76.5t15.5 -89q0 -51 -19 -95.5t-52 -78t-77.5 -53
t-95.5 -19.5q-37 0 -72 11.5t-64.5 31.5t-52 47t-35.5 59l86 49q14 -43 52 -70.5t86 -27.5z" />
    <glyph glyph-name="six.titling" horiz-adv-x="569" 
d="M287 -10q-51 0 -95.5 19.5t-77.5 53t-52 78t-19 95.5q0 35 10.5 67t26.5 64q4 7 14 26t23.5 44.5t29.5 55.5t33 60q39 70 85 156h110l-131 -239q28 7 59 7q51 0 93.5 -20t72.5 -53.5t46.5 -77t16.5 -90.5q0 -51 -19.5 -95.5t-52.5 -78t-77.5 -53t-95.5 -19.5zM176 336
q-13 -26 -24 -54t-11 -46q0 -30 11.5 -57t31.5 -47t46.5 -32t56.5 -12t57 12t46.5 32t31 47t11.5 57q0 31 -11 58t-30.5 47.5t-47.5 32.5t-62 12q-27 0 -54 -10t-49 -34z" />
    <glyph glyph-name="seven.titling" horiz-adv-x="484" 
d="M304 615h-274v94h407v-48l-275 -661h-113z" />
    <glyph glyph-name="eight.titling" horiz-adv-x="515" 
d="M33 216q0 52 23.5 97.5t68.5 72.5q-33 26 -48 60.5t-15 72.5q0 40 15.5 76t42.5 63.5t63 43.5t76 16t75.5 -16t62.5 -43.5t42.5 -63.5t15.5 -76q0 -38 -16.5 -72.5t-45.5 -60.5q19 -12 36 -30.5t29 -41t19 -47.5t7 -51q0 -46 -18 -87t-49 -72t-71.5 -49t-86.5 -18t-87 18
t-72 49t-49 72t-18 87zM259 621q-20 0 -37 -8.5t-30 -22.5t-20 -32.5t-7 -38.5t7 -37t19.5 -30t30 -20.5t37.5 -7.5q41 0 67 28t26 67q0 20 -7 38.5t-20 32.5t-30 22.5t-36 8.5zM213 330q-34 -14 -54.5 -44.5t-20.5 -69.5q0 -25 9.5 -48t25.5 -41t38 -28.5t48 -10.5
q25 0 47 10.5t38 28.5t25.5 41t9.5 48q0 26 -9.5 48.5t-25.5 39t-38 26t-47 9.5t-46 -9z" />
    <glyph glyph-name="nine.titling" horiz-adv-x="556" 
d="M135 273q-48 35 -75.5 88.5t-27.5 114.5q0 51 19.5 95t52.5 76.5t77.5 51.5t95.5 19q50 0 94.5 -19t77.5 -51.5t52.5 -76.5t19.5 -95q0 -35 -11 -67t-27 -64q-4 -8 -14 -27t-24 -44.5t-30.5 -56t-33.5 -60.5q-40 -71 -87 -157h-109l135 243q-16 -4 -31 -6t-30 -2
q-35 0 -66.5 10t-57.5 28zM277 622q-30 0 -57 -11.5t-47 -31t-31.5 -46.5t-11.5 -57t11 -57.5t30.5 -48t47.5 -32.5t62 -12q27 0 54 10t49 34l4 6q13 26 24 54t11 46q0 30 -11.5 57t-31.5 46.5t-46.5 31t-56.5 11.5z" />
    <glyph glyph-name="Adieresis.salt" 
d="M197 644q-26 0 -44 18.5t-18 44.5t18 44t44 18t44 -18t18 -44t-18 -44.5t-44 -18.5zM528 644q-26 0 -44 18.5t-18 44.5t18 44t44 18t44 -18t18 -44t-18 -44.5t-44 -18.5zM125 0h-114l295 709h115l295 -709h-113l-93 222h-293zM257 318h213l-106 256z" />
    <glyph glyph-name="Odieresis.salt" horiz-adv-x="767" 
d="M96 644q-26 0 -44 18.5t-18 44.5t18 44t44 18t44 -18t18 -44t-18 -44.5t-44 -18.5zM675 644q-26 0 -44 18.5t-18 44.5t18 44t44 18t44 -18t18 -44t-18 -44.5t-44 -18.5zM385 719q72 0 136 -29t111.5 -78.5t75.5 -116t28 -140.5q0 -75 -28 -141t-76 -115.5t-112 -78.5
t-136 -29t-136 29t-111.5 78.5t-75 115.5t-27.5 141q0 74 27.5 140.5t75.5 116t112 78.5t136 29zM385 90q51 0 95.5 20.5t77.5 56.5t52 84.5t19 103.5t-19 103t-52 84t-77.5 56.5t-95.5 20.5t-95.5 -20.5t-77.5 -56.5t-52.5 -84t-19.5 -103t19.5 -103.5t52.5 -84.5
t77.5 -56.5t95.5 -20.5z" />
    <glyph glyph-name="Udieresis.salt" horiz-adv-x="638" 
d="M577 251q0 -54 -20.5 -101.5t-55.5 -83t-82 -56t-101 -20.5t-101 20.5t-82 56t-55.5 83t-20.5 101.5v458h104v-458q0 -32 12 -61t33 -51.5t49.5 -35.5t60.5 -13t60 13t49 35.5t33 51.5t12 61v458h105v-458zM245 644q-26 0 -44 18.5t-18 44.5t18 44t44 18t44 -18t18 -44
t-18 -44.5t-44 -18.5zM390 644q-26 0 -44 18.5t-18 44.5t18 44t44 18t44 -18t18 -44t-18 -44.5t-44 -18.5z" />
    <glyph glyph-name="radical" unicode="&#x221a;" horiz-adv-x="688" 
d="M253 0l-129 268l-63 -133l-60 30l86 181h74l129 -274l312 658h73l-347 -730h-75z" />
    <glyph glyph-name="tilde" unicode="&#x2dc;" horiz-adv-x="443" 
d="M303 818q20 3 38.5 18t31.5 30q10 -10 20.5 -20t18.5 -21q-7 -11 -17 -23.5t-23 -24t-28 -19.5t-32 -11q-5 -1 -8.5 -1.5t-7.5 -0.5q-22 0 -40.5 10t-35.5 23q-14 10 -28.5 17t-32.5 7q-10 0 -15 -1q-20 -3 -36 -15.5t-27 -32.5l-51 34q12 25 37 51t68 34q5 1 9.5 1.5
t9.5 0.5q26 0 46.5 -10t37.5 -21l3 -2l6 -4l3 -2q12 -8 22.5 -13t21.5 -5q6 0 9 1z" />
    <glyph glyph-name="ring" unicode="&#x2da;" horiz-adv-x="299" 
d="M153 789q22 0 41.5 -8.5t34 -23t23 -34t8.5 -41.5t-8.5 -41.5t-23 -34t-34 -23t-41.5 -8.5q-23 0 -42.5 8.5t-33.5 23t-22.5 34t-8.5 41.5t8.5 41.5t22.5 34t33.5 23t42.5 8.5zM153 638q19 0 31 13t12 31q0 19 -12 31t-31 12t-31.5 -12t-12.5 -31q0 -18 12.5 -31
t31.5 -13z" />
    <glyph glyph-name="ogonek" unicode="&#x2db;" horiz-adv-x="213" 
d="M129 -38q-14 -14 -28 -35t-14 -42q2 -26 25 -37t49 -11q15 0 29 3l7 -29q-7 -3 -16 -5q-8 -2 -19 -3t-25 -1q-21 0 -40.5 5.5t-34.5 16t-23.5 25.5t-8.5 34q0 23 11 42t27 37h61z" />
    <glyph glyph-name="hungarumlaut" unicode="&#x2dd;" horiz-adv-x="381" 
d="M174 709l-56 -178h-79l24 178h111zM350 709l-56 -178h-79l24 178h111z" />
    <glyph glyph-name="dotaccent" unicode="&#x2d9;" horiz-adv-x="184" 
d="M92 756q-26 0 -44 18.5t-18 44.5t18 44t44 18t44 -18t18 -44t-18 -44.5t-44 -18.5z" />
    <glyph glyph-name="circumflex" unicode="&#x2c6;" horiz-adv-x="359" 
d="M175 844l-60 -88h-102l116 125h91l121 -125h-101z" />
    <glyph glyph-name="Aring" unicode="&#xc5;" 
d="M364 860q22 0 41.5 -8.5t34 -23t23 -34t8.5 -41.5q0 -24 -9.5 -44.5t-26.5 -35.5l281 -673h-113l-93 222h-293l-92 -222h-114l280 674q-16 14 -25 35t-9 44q0 22 8.5 41.5t22.5 34t33.5 23t42.5 8.5zM257 318h213l-106 256zM364 709q19 0 31 13t12 31q0 19 -12 31t-31 12
t-31.5 -12t-12.5 -31q0 -18 12.5 -31t31.5 -13z" />
    <glyph glyph-name="Eacute" unicode="&#xc9;" horiz-adv-x="549" 
d="M489 709v-94h-329v-193h293v-97v0h-293v-228h329v-97v0h-329h-52h-52v709h433zM342 934l-56 -178h-79l24 178h111z" />
    <glyph glyph-name="Ntilde" unicode="&#xd1;" horiz-adv-x="725" 
d="M667 709v-709h-106l-396 544v-544h-109v709h110l396 -547v547h105zM444 829q20 3 38.5 18t31.5 30q10 -10 20.5 -20t18.5 -21q-7 -11 -17 -23.5t-23 -24t-28 -19.5t-32 -11q-5 -1 -8.5 -1.5t-7.5 -0.5q-22 0 -40.5 10t-35.5 23q-14 10 -28.5 17t-32.5 7q-10 0 -15 -1
q-20 -3 -36 -15.5t-27 -32.5l-51 34q12 25 37 51t68 34q5 1 9.5 1.5t9.5 0.5q26 0 46.5 -10t37.5 -21l3 -2l6 -4l3 -2q12 -8 22.5 -13t21.5 -5q6 0 9 1z" />
    <glyph glyph-name="aacute" unicode="&#xe1;" horiz-adv-x="553" 
d="M510 479v-479h-82l-15 55q-25 -33 -64 -50t-79 -17q-50 0 -93.5 19.5t-76 53.5t-51.5 80t-19 98t19 98t51.5 80t76 53.5t93.5 19.5q40 0 77 -15.5t66 -48.5l15 53h82zM270 74q29 0 55 13t45 35.5t30 52.5t11 64t-11 64t-30 52.5t-45 35.5t-55 13t-55 -13t-45 -35.5
t-30 -52.5t-11 -64t11 -64t30 -52.5t45 -35.5t55 -13zM365 709l-56 -178h-79l24 178h111z" />
    <glyph glyph-name="agrave" unicode="&#xe0;" horiz-adv-x="553" 
d="M510 479v-479h-82l-15 55q-25 -33 -64 -50t-79 -17q-50 0 -93.5 19.5t-76 53.5t-51.5 80t-19 98t19 98t51.5 80t76 53.5t93.5 19.5q40 0 77 -15.5t66 -48.5l15 53h82zM270 74q29 0 55 13t45 35.5t30 52.5t11 64t-11 64t-30 52.5t-45 35.5t-55 13t-55 -13t-45 -35.5
t-30 -52.5t-11 -64t11 -64t30 -52.5t45 -35.5t55 -13zM301 709l24 -178h-79l-56 178h111z" />
    <glyph glyph-name="acircumflex" unicode="&#xe2;" horiz-adv-x="553" 
d="M510 479v-479h-82l-15 55q-25 -33 -64 -50t-79 -17q-50 0 -93.5 19.5t-76 53.5t-51.5 80t-19 98t19 98t51.5 80t76 53.5t93.5 19.5q40 0 77 -15.5t66 -48.5l15 53h82zM270 74q29 0 55 13t45 35.5t30 52.5t11 64t-11 64t-30 52.5t-45 35.5t-55 13t-55 -13t-45 -35.5
t-30 -52.5t-11 -64t11 -64t30 -52.5t45 -35.5t55 -13zM288 672l-60 -88h-102l116 125h91l121 -125h-101z" />
    <glyph glyph-name="atilde" unicode="&#xe3;" horiz-adv-x="553" 
d="M510 479v-479h-82l-15 55q-25 -33 -64 -50t-79 -17q-50 0 -93.5 19.5t-76 53.5t-51.5 80t-19 98t19 98t51.5 80t76 53.5t93.5 19.5q40 0 77 -15.5t66 -48.5l15 53h82zM270 74q29 0 55 13t45 35.5t30 52.5t11 64t-11 64t-30 52.5t-45 35.5t-55 13t-55 -13t-45 -35.5
t-30 -52.5t-11 -64t11 -64t30 -52.5t45 -35.5t55 -13zM370 653q20 3 38.5 18t31.5 30q10 -10 20.5 -20t18.5 -21q-7 -11 -17 -23.5t-23 -24t-28 -19.5t-32 -11q-5 -1 -8.5 -1.5t-7.5 -0.5q-22 0 -40.5 10t-35.5 23q-14 10 -28.5 17t-32.5 7q-10 0 -15 -1q-20 -3 -36 -15.5
t-27 -32.5l-51 34q12 25 37 51t68 34q5 1 9.5 1.5t9.5 0.5q26 0 46.5 -10t37.5 -21l3 -2l6 -4l3 -2q12 -8 22.5 -13t21.5 -5q6 0 9 1z" />
    <glyph glyph-name="aring" unicode="&#xe5;" horiz-adv-x="553" 
d="M510 479v-479h-82l-15 55q-25 -33 -64 -50t-79 -17q-50 0 -93.5 19.5t-76 53.5t-51.5 80t-19 98t19 98t51.5 80t76 53.5t93.5 19.5q40 0 77 -15.5t66 -48.5l15 53h82zM270 74q29 0 55 13t45 35.5t30 52.5t11 64t-11 64t-30 52.5t-45 35.5t-55 13t-55 -13t-45 -35.5
t-30 -52.5t-11 -64t11 -64t30 -52.5t45 -35.5t55 -13zM280 730q22 0 41.5 -8.5t34 -23t23 -34t8.5 -41.5t-8.5 -41.5t-23 -34t-34 -23t-41.5 -8.5q-23 0 -42.5 8.5t-33.5 23t-22.5 34t-8.5 41.5t8.5 41.5t22.5 34t33.5 23t42.5 8.5zM280 579q19 0 31 13t12 31q0 19 -12 31
t-31 12t-31.5 -12t-12.5 -31q0 -18 12.5 -31t31.5 -13z" />
    <glyph glyph-name="eacute" unicode="&#xe9;" horiz-adv-x="556" 
d="M293 -12q-52 0 -97.5 19.5t-79.5 53.5t-53.5 80t-19.5 98t18.5 98t50 80t73.5 53.5t90 19.5q49 0 90.5 -17t72 -53t47.5 -91.5t17 -132.5h-356q7 -26 22 -48.5t35.5 -39t46 -25.5t53.5 -9q38 0 70.5 14t55.5 37l60 -60q-35 -35 -85.5 -56t-110.5 -21zM275 402
q-23 0 -43.5 -9t-38 -25t-30 -38t-18.5 -48h253q-2 24 -11 46t-25 38.5t-37.5 26t-49.5 9.5zM345 709l-56 -178h-79l24 178h111z" />
    <glyph glyph-name="egrave" unicode="&#xe8;" horiz-adv-x="556" 
d="M293 -12q-52 0 -97.5 19.5t-79.5 53.5t-53.5 80t-19.5 98t18.5 98t50 80t73.5 53.5t90 19.5q49 0 90.5 -17t72 -53t47.5 -91.5t17 -132.5h-356q7 -26 22 -48.5t35.5 -39t46 -25.5t53.5 -9q38 0 70.5 14t55.5 37l60 -60q-35 -35 -85.5 -56t-110.5 -21zM275 402
q-23 0 -43.5 -9t-38 -25t-30 -38t-18.5 -48h253q-2 24 -11 46t-25 38.5t-37.5 26t-49.5 9.5zM311 709l24 -178h-79l-56 178h111z" />
    <glyph glyph-name="ecircumflex" unicode="&#xea;" horiz-adv-x="556" 
d="M293 -12q-52 0 -97.5 19.5t-79.5 53.5t-53.5 80t-19.5 98t18.5 98t50 80t73.5 53.5t90 19.5q49 0 90.5 -17t72 -53t47.5 -91.5t17 -132.5h-356q7 -26 22 -48.5t35.5 -39t46 -25.5t53.5 -9q38 0 70.5 14t55.5 37l60 -60q-35 -35 -85.5 -56t-110.5 -21zM275 402
q-23 0 -43.5 -9t-38 -25t-30 -38t-18.5 -48h253q-2 24 -11 46t-25 38.5t-37.5 26t-49.5 9.5zM286 672l-60 -88h-102l116 125h91l121 -125h-101z" />
    <glyph glyph-name="edieresis" unicode="&#xeb;" horiz-adv-x="556" 
d="M293 -12q-52 0 -97.5 19.5t-79.5 53.5t-53.5 80t-19.5 98t18.5 98t50 80t73.5 53.5t90 19.5q49 0 90.5 -17t72 -53t47.5 -91.5t17 -132.5h-356q7 -26 22 -48.5t35.5 -39t46 -25.5t53.5 -9q38 0 70.5 14t55.5 37l60 -60q-35 -35 -85.5 -56t-110.5 -21zM275 402
q-23 0 -43.5 -9t-38 -25t-30 -38t-18.5 -48h253q-2 24 -11 46t-25 38.5t-37.5 26t-49.5 9.5zM162 584q-26 0 -44 18.5t-18 44.5t18 44t44 18t44 -18t18 -44t-18 -44.5t-44 -18.5zM393 584q-26 0 -44 18.5t-18 44.5t18 44t44 18t44 -18t18 -44t-18 -44.5t-44 -18.5z" />
    <glyph glyph-name="iacute" unicode="&#xed;" horiz-adv-x="252" 
d="M186 0h-97v479h96zM231 709l-56 -178h-79l24 178h111z" />
    <glyph glyph-name="igrave" unicode="&#xec;" horiz-adv-x="252" 
d="M186 0h-97v479h96zM148 709l24 -178h-79l-56 178h111z" />
    <glyph glyph-name="icircumflex" unicode="&#xee;" horiz-adv-x="252" 
d="M176 0h-97v479h96zM124 672l-60 -88h-102l116 125h91l121 -125h-101z" />
    <glyph glyph-name="idieresis" unicode="&#xef;" horiz-adv-x="252" 
d="M181 0h-97v479h96zM11 584q-26 0 -44 18.5t-18 44.5t18 44t44 18t44 -18t18 -44t-18 -44.5t-44 -18.5zM242 584q-26 0 -44 18.5t-18 44.5t18 44t44 18t44 -18t18 -44t-18 -44.5t-44 -18.5z" />
    <glyph glyph-name="ntilde" unicode="&#xf1;" horiz-adv-x="534" 
d="M151 0h-97v479h77l20 -42q24 23 58 38t74 15q26 0 59 -8t61.5 -30t48 -61t19.5 -101v-290h-92v291q0 31 -9.5 52.5t-25 34.5t-35 18.5t-40.5 5.5q-16 0 -36.5 -6t-38.5 -19.5t-30.5 -34t-12.5 -50.5v-292zM349 653q20 3 38.5 18t31.5 30q10 -10 20.5 -20t18.5 -21
q-7 -11 -17 -23.5t-23 -24t-28 -19.5t-32 -11q-5 -1 -8.5 -1.5t-7.5 -0.5q-22 0 -40.5 10t-35.5 23q-14 10 -28.5 17t-32.5 7q-10 0 -15 -1q-20 -3 -36 -15.5t-27 -32.5l-51 34q12 25 37 51t68 34q5 1 9.5 1.5t9.5 0.5q26 0 46.5 -10t37.5 -21l3 -2l6 -4l3 -2
q12 -8 22.5 -13t21.5 -5q6 0 9 1z" />
    <glyph glyph-name="oacute" unicode="&#xf3;" horiz-adv-x="558" 
d="M276 -12q-50 0 -93.5 19.5t-76 53.5t-51.5 80t-19 98t19 98t51.5 80t76 53.5t93.5 19.5q49 0 93 -19.5t76.5 -53.5t51.5 -80t19 -98t-19 -98t-51.5 -80t-76.5 -53.5t-93 -19.5zM276 403q-29 0 -55 -13t-45.5 -35t-30.5 -52t-11 -64t11 -64t30.5 -52.5t45.5 -35.5t55 -13
t55 13t45 35.5t30 52.5t11 64t-11 64t-30 52t-45 35t-55 13zM346 709l-56 -178h-79l24 178h111z" />
    <glyph glyph-name="ograve" unicode="&#xf2;" horiz-adv-x="558" 
d="M276 -12q-50 0 -93.5 19.5t-76 53.5t-51.5 80t-19 98t19 98t51.5 80t76 53.5t93.5 19.5q49 0 93 -19.5t76.5 -53.5t51.5 -80t19 -98t-19 -98t-51.5 -80t-76.5 -53.5t-93 -19.5zM276 403q-29 0 -55 -13t-45.5 -35t-30.5 -52t-11 -64t11 -64t30.5 -52.5t45.5 -35.5t55 -13
t55 13t45 35.5t30 52.5t11 64t-11 64t-30 52t-45 35t-55 13zM322 709l24 -178h-79l-56 178h111z" />
    <glyph glyph-name="ocircumflex" unicode="&#xf4;" horiz-adv-x="558" 
d="M276 -12q-50 0 -93.5 19.5t-76 53.5t-51.5 80t-19 98t19 98t51.5 80t76 53.5t93.5 19.5q49 0 93 -19.5t76.5 -53.5t51.5 -80t19 -98t-19 -98t-51.5 -80t-76.5 -53.5t-93 -19.5zM276 403q-29 0 -55 -13t-45.5 -35t-30.5 -52t-11 -64t11 -64t30.5 -52.5t45.5 -35.5t55 -13
t55 13t45 35.5t30 52.5t11 64t-11 64t-30 52t-45 35t-55 13zM277 672l-60 -88h-102l116 125h91l121 -125h-101z" />
    <glyph glyph-name="otilde" unicode="&#xf5;" horiz-adv-x="558" 
d="M276 -12q-50 0 -93.5 19.5t-76 53.5t-51.5 80t-19 98t19 98t51.5 80t76 53.5t93.5 19.5q49 0 93 -19.5t76.5 -53.5t51.5 -80t19 -98t-19 -98t-51.5 -80t-76.5 -53.5t-93 -19.5zM276 403q-29 0 -55 -13t-45.5 -35t-30.5 -52t-11 -64t11 -64t30.5 -52.5t45.5 -35.5t55 -13
t55 13t45 35.5t30 52.5t11 64t-11 64t-30 52t-45 35t-55 13zM361 653q20 3 38.5 18t31.5 30q10 -10 20.5 -20t18.5 -21q-7 -11 -17 -23.5t-23 -24t-28 -19.5t-32 -11q-5 -1 -8.5 -1.5t-7.5 -0.5q-22 0 -40.5 10t-35.5 23q-14 10 -28.5 17t-32.5 7q-10 0 -15 -1
q-20 -3 -36 -15.5t-27 -32.5l-51 34q12 25 37 51t68 34q5 1 9.5 1.5t9.5 0.5q26 0 46.5 -10t37.5 -21l3 -2l6 -4l3 -2q12 -8 22.5 -13t21.5 -5q6 0 9 1z" />
    <glyph glyph-name="uacute" unicode="&#xfa;" horiz-adv-x="535" 
d="M380 43q-25 -23 -58.5 -38t-74.5 -15q-26 0 -59 7.5t-61.5 29.5t-48 60.5t-19.5 100.5v291h92v-291q0 -31 9.5 -52.5t25 -34.5t35.5 -19t41 -6q16 0 36.5 6t38.5 19.5t30.5 34.5t12.5 51v292h97v-479h-77zM335 709l-56 -178h-79l24 178h111z" />
    <glyph glyph-name="ugrave" unicode="&#xf9;" horiz-adv-x="535" 
d="M380 43q-25 -23 -58.5 -38t-74.5 -15q-26 0 -59 7.5t-61.5 29.5t-48 60.5t-19.5 100.5v291h92v-291q0 -31 9.5 -52.5t25 -34.5t35.5 -19t41 -6q16 0 36.5 6t38.5 19.5t30.5 34.5t12.5 51v292h97v-479h-77zM311 709l24 -178h-79l-56 178h111z" />
    <glyph glyph-name="ucircumflex" unicode="&#xfb;" horiz-adv-x="535" 
d="M380 43q-25 -23 -58.5 -38t-74.5 -15q-26 0 -59 7.5t-61.5 29.5t-48 60.5t-19.5 100.5v291h92v-291q0 -31 9.5 -52.5t25 -34.5t35.5 -19t41 -6q16 0 36.5 6t38.5 19.5t30.5 34.5t12.5 51v292h97v-479h-77zM265 672l-60 -88h-102l116 125h91l121 -125h-101z" />
    <glyph glyph-name="Agrave" unicode="&#xc0;" 
d="M125 0h-114l295 709h115l295 -709h-113l-93 222h-293zM257 318h213l-106 256zM379 934l24 -178h-79l-56 178h111z" />
    <glyph glyph-name="Atilde" unicode="&#xc3;" 
d="M125 0h-114l295 709h115l295 -709h-113l-93 222h-293zM257 318h213l-106 256zM438 829q20 3 38.5 18t31.5 30q10 -10 20.5 -20t18.5 -21q-7 -11 -17 -23.5t-23 -24t-28 -19.5t-32 -11q-5 -1 -8.5 -1.5t-7.5 -0.5q-22 0 -40.5 10t-35.5 23q-14 10 -28.5 17t-32.5 7
q-10 0 -15 -1q-20 -3 -36 -15.5t-27 -32.5l-51 34q12 25 37 51t68 34q5 1 9.5 1.5t9.5 0.5q26 0 46.5 -10t37.5 -21l3 -2l6 -4l3 -2q12 -8 22.5 -13t21.5 -5q6 0 9 1z" />
    <glyph glyph-name="Otilde" unicode="&#xd5;" horiz-adv-x="767" 
d="M385 719q72 0 136 -29t111.5 -78.5t75.5 -116t28 -140.5q0 -75 -28 -141t-76 -115.5t-112 -78.5t-136 -29t-136 29t-111.5 78.5t-75 115.5t-27.5 141q0 74 27.5 140.5t75.5 116t112 78.5t136 29zM385 90q51 0 95.5 20.5t77.5 56.5t52 84.5t19 103.5t-19 103t-52 84
t-77.5 56.5t-95.5 20.5t-95.5 -20.5t-77.5 -56.5t-52.5 -84t-19.5 -103t19.5 -103.5t52.5 -84.5t77.5 -56.5t95.5 -20.5zM455 829q20 3 38.5 18t31.5 30q10 -10 20.5 -20t18.5 -21q-7 -11 -17 -23.5t-23 -24t-28 -19.5t-32 -11q-5 -1 -8.5 -1.5t-7.5 -0.5q-22 0 -40.5 10
t-35.5 23q-14 10 -28.5 17t-32.5 7q-10 0 -15 -1q-20 -3 -36 -15.5t-27 -32.5l-51 34q12 25 37 51t68 34q5 1 9.5 1.5t9.5 0.5q26 0 46.5 -10t37.5 -21l3 -2l6 -4l3 -2q12 -8 22.5 -13t21.5 -5q6 0 9 1z" />
    <glyph glyph-name="ydieresis" unicode="&#xff;" horiz-adv-x="535" 
d="M213 54l-203 425h108l148 -311l145 311h107l-309 -670h-107zM152 583q-26 0 -44 18.5t-18 44.5t18 44t44 18t44 -18t18 -44t-18 -44.5t-44 -18.5zM383 583q-26 0 -44 18.5t-18 44.5t18 44t44 18t44 -18t18 -44t-18 -44.5t-44 -18.5z" />
    <glyph glyph-name="Ydieresis" unicode="&#x178;" horiz-adv-x="627" 
d="M259 332l-250 377h125l177 -266l177 266h126l-250 -377v-332h-105v332zM198 756q-26 0 -44 18.5t-18 44.5t18 44t44 18t44 -18t18 -44t-18 -44.5t-44 -18.5zM429 756q-26 0 -44 18.5t-18 44.5t18 44t44 18t44 -18t18 -44t-18 -44.5t-44 -18.5z" />
    <glyph glyph-name="Acircumflex" unicode="&#xc2;" 
d="M125 0h-114l295 709h115l295 -709h-113l-93 222h-293zM257 318h213l-106 256zM362 844l-60 -88h-102l116 125h91l121 -125h-101z" />
    <glyph glyph-name="Ecircumflex" unicode="&#xca;" horiz-adv-x="549" 
d="M489 709v-94h-329v-193h293v-97v0h-293v-228h329v-97v0h-329h-52h-52v709h433zM272 844l-60 -88h-102l116 125h91l121 -125h-101z" />
    <glyph glyph-name="Aacute" unicode="&#xc1;" 
d="M125 0h-114l295 709h115l295 -709h-113l-93 222h-293zM257 318h213l-106 256zM463 934l-56 -178h-79l24 178h111z" />
    <glyph glyph-name="Edieresis" unicode="&#xcb;" horiz-adv-x="549" 
d="M489 709v-94h-329v-193h293v-97v0h-293v-228h329v-97v0h-329h-52h-52v709h433zM159 756q-26 0 -44 18.5t-18 44.5t18 44t44 18t44 -18t18 -44t-18 -44.5t-44 -18.5zM390 756q-26 0 -44 18.5t-18 44.5t18 44t44 18t44 -18t18 -44t-18 -44.5t-44 -18.5z" />
    <glyph glyph-name="Egrave" unicode="&#xc8;" horiz-adv-x="549" 
d="M489 709v-94h-329v-193h293v-97v0h-293v-228h329v-97v0h-329h-52h-52v709h433zM318 934l24 -178h-79l-56 178h111z" />
    <glyph glyph-name="Iacute" unicode="&#xcd;" horiz-adv-x="393" 
d="M248 623v-537h52v-86h-209v86h53v537h-53v86h209v-86h-52zM299 934l-56 -178h-79l24 178h111z" />
    <glyph glyph-name="Icircumflex" unicode="&#xce;" horiz-adv-x="393" 
d="M248 623v-537h52v-86h-209v86h53v537h-53v86h209v-86h-52zM194 844l-60 -88h-102l116 125h91l121 -125h-101z" />
    <glyph glyph-name="Idieresis" unicode="&#xcf;" horiz-adv-x="393" 
d="M248 623v-537h52v-86h-209v86h53v537h-53v86h209v-86h-52zM84 756q-26 0 -44 18.5t-18 44.5t18 44t44 18t44 -18t18 -44t-18 -44.5t-44 -18.5zM315 756q-26 0 -44 18.5t-18 44.5t18 44t44 18t44 -18t18 -44t-18 -44.5t-44 -18.5z" />
    <glyph glyph-name="Igrave" unicode="&#xcc;" horiz-adv-x="393" 
d="M248 623v-537h52v-86h-209v86h53v537h-53v86h209v-86h-52zM211 934l24 -178h-79l-56 178h111z" />
    <glyph glyph-name="Oacute" unicode="&#xd3;" horiz-adv-x="767" 
d="M385 719q72 0 136 -29t111.5 -78.5t75.5 -116t28 -140.5q0 -75 -28 -141t-76 -115.5t-112 -78.5t-136 -29t-136 29t-111.5 78.5t-75 115.5t-27.5 141q0 74 27.5 140.5t75.5 116t112 78.5t136 29zM385 90q51 0 95.5 20.5t77.5 56.5t52 84.5t19 103.5t-19 103t-52 84
t-77.5 56.5t-95.5 20.5t-95.5 -20.5t-77.5 -56.5t-52.5 -84t-19.5 -103t19.5 -103.5t52.5 -84.5t77.5 -56.5t95.5 -20.5zM451 934l-56 -178h-79l24 178h111z" />
    <glyph glyph-name="Ocircumflex" unicode="&#xd4;" horiz-adv-x="767" 
d="M385 719q72 0 136 -29t111.5 -78.5t75.5 -116t28 -140.5q0 -75 -28 -141t-76 -115.5t-112 -78.5t-136 -29t-136 29t-111.5 78.5t-75 115.5t-27.5 141q0 74 27.5 140.5t75.5 116t112 78.5t136 29zM385 90q51 0 95.5 20.5t77.5 56.5t52 84.5t19 103.5t-19 103t-52 84
t-77.5 56.5t-95.5 20.5t-95.5 -20.5t-77.5 -56.5t-52.5 -84t-19.5 -103t19.5 -103.5t52.5 -84.5t77.5 -56.5t95.5 -20.5zM381 844l-60 -88h-102l116 125h91l121 -125h-101z" />
    <glyph glyph-name="Ograve" unicode="&#xd2;" horiz-adv-x="767" 
d="M385 719q72 0 136 -29t111.5 -78.5t75.5 -116t28 -140.5q0 -75 -28 -141t-76 -115.5t-112 -78.5t-136 -29t-136 29t-111.5 78.5t-75 115.5t-27.5 141q0 74 27.5 140.5t75.5 116t112 78.5t136 29zM385 90q51 0 95.5 20.5t77.5 56.5t52 84.5t19 103.5t-19 103t-52 84
t-77.5 56.5t-95.5 20.5t-95.5 -20.5t-77.5 -56.5t-52.5 -84t-19.5 -103t19.5 -103.5t52.5 -84.5t77.5 -56.5t95.5 -20.5zM427 934l24 -178h-79l-56 178h111z" />
    <glyph glyph-name="Uacute" unicode="&#xda;" horiz-adv-x="634" 
d="M577 251q0 -54 -20.5 -101.5t-55.5 -83t-82 -56t-101 -20.5t-101 20.5t-82 56t-55.5 83t-20.5 101.5v458h104v-458q0 -32 12 -61t33 -51.5t49.5 -35.5t60.5 -13t60 13t49 35.5t33 51.5t12 61v458h105v-458zM384 934l-56 -178h-79l24 178h111z" />
    <glyph glyph-name="Ucircumflex" unicode="&#xdb;" horiz-adv-x="634" 
d="M576 251q0 -54 -20.5 -101.5t-55.5 -83t-82 -56t-101 -20.5t-101 20.5t-82 56t-55.5 83t-20.5 101.5v458h104v-458q0 -32 12 -61t33 -51.5t49.5 -35.5t60.5 -13t60 13t49 35.5t33 51.5t12 61v458h105v-458zM315 844l-60 -88h-102l116 125h91l121 -125h-101z" />
    <glyph glyph-name="Ugrave" unicode="&#xd9;" horiz-adv-x="634" 
d="M577 251q0 -54 -20.5 -101.5t-55.5 -83t-82 -56t-101 -20.5t-101 20.5t-82 56t-55.5 83t-20.5 101.5v458h104v-458q0 -32 12 -61t33 -51.5t49.5 -35.5t60.5 -13t60 13t49 35.5t33 51.5t12 61v458h105v-458zM360 934l24 -178h-79l-56 178h111z" />
    <glyph glyph-name="dagger" unicode="&#x2020;" horiz-adv-x="305" 
d="M6 510h113v246h66v-246h115v-66h-115v-595h-66v595h-113v66z" />
    <glyph glyph-name="daggerdbl" unicode="&#x2021;" horiz-adv-x="436" 
d="M431 115h-181v-306h-66v306h-179v65h179v232h-179v66h179v278h66v-278h181v-66h-181v-232h181v-65z" />
    <glyph glyph-name="ae" unicode="&#xe6;" horiz-adv-x="846" 
d="M602 -12q-58 0 -107.5 24t-84.5 66q-9 -10 -26 -25.5t-42.5 -29.5t-60.5 -24.5t-80 -10.5q-35 0 -65 7.5t-52.5 24t-35 42.5t-12.5 64q0 31 12.5 57t33.5 45.5t50 31.5t62 15l68 7q33 3 51 6.5t27 8t11 11t2 16.5q0 15 -9 29t-24 25t-35.5 17.5t-42.5 6.5q-17 0 -32 -3
t-29 -11t-29 -21t-32 -32l-73 47q40 53 92.5 80.5t110.5 27.5q19 0 41 -3.5t44.5 -13t43 -25t35.5 -39.5q32 37 75.5 59t94.5 22q49 0 90.5 -17t72 -53t47.5 -91.5t17 -132.5h-350l5 -30q20 -42 59 -67t87 -25q38 0 70.5 14t55.5 37l60 -60q-35 -35 -85.5 -56t-110.5 -21z
M584 402q-23 0 -43.5 -9t-38 -25t-30 -38t-18.5 -48h253q-2 24 -11 46t-25 38.5t-37.5 26t-49.5 9.5zM353 213q-24 -2 -49 -5q-21 -2 -46 -5.5t-45 -5.5q-21 -3 -35.5 -10t-24 -16.5t-13.5 -20t-4 -19.5q0 -26 22 -42.5t59 -16.5q14 0 37 5t45 17.5t38 33.5t16 53v32z" />
    <glyph glyph-name="oe" unicode="&#x153;" horiz-adv-x="912" 
d="M667 -12q-62 0 -113.5 27t-86.5 72q-33 -45 -82.5 -72t-108.5 -27q-50 0 -93.5 19.5t-76 53.5t-51.5 80t-19 98t19 98t51.5 80t76 53.5t93.5 19.5q58 0 107 -26.5t82 -71.5q32 45 80 71.5t104 26.5q49 0 90.5 -17t72 -53t47.5 -91.5t17 -132.5h-356q7 -26 22 -48.5
t35.5 -39t46 -25.5t53.5 -9q38 0 70.5 14t55.5 37l60 -60q-35 -35 -85.5 -56t-110.5 -21zM276 403q-29 0 -55 -13t-45.5 -35t-30.5 -52t-11 -64t11 -64t30.5 -52.5t45.5 -35.5t55 -13q28 0 53.5 12.5t44.5 33.5t30.5 50t12.5 62v14q-1 33 -12.5 61.5t-30.5 50t-44.5 33.5
t-53.5 12zM649 402q-23 0 -43.5 -9t-38 -25t-30 -38t-18.5 -48h253q-2 24 -11 46t-25 38.5t-37.5 26t-49.5 9.5z" />
    <glyph glyph-name="OE" unicode="&#x152;" horiz-adv-x="1025" 
d="M989 709v-94h-329v-193h293v-97h-293v-228h329v-97h-433v39q-39 -23 -82.5 -35.5t-90.5 -12.5q-72 0 -136 29t-111.5 78.5t-75 115.5t-27.5 141q0 74 27.5 140.5t75.5 116t112 78.5t136 29q47 0 90.5 -12.5t81.5 -35.5v38h433zM384 90q51 0 95 20.5t77 56.5v375
q-33 36 -77 56.5t-95 20.5t-95.5 -20.5t-77.5 -56.5t-52.5 -84t-19.5 -103t19.5 -103.5t52.5 -84.5t77.5 -56.5t95.5 -20.5z" />
    <glyph glyph-name="yen" unicode="&#xa5;" horiz-adv-x="637" 
d="M533 201h-162v-201h-105v201h-159v45h159v85h-159v46h129l-220 332h125l177 -266l177 266h126l-220 -332h132v-46h-162v-85h162v-45z" />
    <glyph glyph-name="section" unicode="&#xa7;" horiz-adv-x="519" 
d="M489 -14q0 -85 -65 -139q-62 -53 -162 -53q-77 0 -139.5 31.5t-91.5 84.5l81 42q18 -32 58.5 -50t91.5 -18q133 0 133 102q0 36 -28 58q-31 26 -118 50q-51 13 -87 28.5t-59 35.5q-59 48 -59 125q0 38 15.5 71t43.5 58q10 9 24 18q-7 4 -13 8.5t-11 9.5q-59 47 -59 124
q0 38 15.5 71.5t43.5 57.5q28 26 66 38t83 12q67 0 123.5 -25.5t85.5 -72.5l-74 -46q-26 32 -61.5 45.5t-73.5 13.5q-27 0 -50 -9t-38 -22q-13 -11 -19 -27.5t-6 -34.5q0 -12 4 -24.5t17.5 -25t40 -25.5t71.5 -25q55 -14 93 -29.5t64 -37.5q60 -50 60 -131q0 -85 -65 -138
l-11 -9l16 -12q60 -50 60 -130zM367 333q-28 23 -87 41q-7 1 -14 1.5t-14 0.5q-27 0 -50 -8.5t-38 -22.5q-13 -11 -19 -27.5t-6 -34.5q0 -11 4 -23.5t17.5 -25.5t40 -25.5t71.5 -24.5l31 -8q92 15 92 99q0 20 -7 33.5t-21 24.5z" />
    <glyph glyph-name="divide" unicode="&#xf7;" horiz-adv-x="517" 
d="M510 243v-66h-503v66h503zM255 300q-26 0 -44 18t-18 44t18 44.5t44 18.5t44.5 -18.5t18.5 -44.5t-18.5 -44t-44.5 -18zM193 52q0 26 18 44.5t44 18.5t44 -18.5t18 -44.5t-18 -44t-44 -18t-44 18t-18 44z" />
    <glyph glyph-name="plusminus" unicode="&#xb1;" horiz-adv-x="511" 
d="M297 347h200v-66h-200v-169h-78v169h-205v66h205v169h78v-169zM497 66v-66h-483v66h483z" />
    <glyph glyph-name="lessequal" unicode="&#x2264;" horiz-adv-x="494" 
d="M40 313l389 188v-66l-321 -154l321 -156v-66l-389 188v66zM429 59v-59h-397v59h397z" />
    <glyph glyph-name="greaterequal" unicode="&#x2265;" horiz-adv-x="494" 
d="M454 247l-389 -188v66l321 156l-321 154v66l389 -188v-66zM462 59v-59h-397v59h397z" />
    <glyph glyph-name="ellipsis" unicode="&#x2026;" horiz-adv-x="644" 
d="M41 52q0 26 18 44.5t44 18.5t44 -18.5t18 -44.5t-18 -44t-44 -18t-44 18t-18 44zM260 52q0 26 18 44.5t44 18.5t44 -18.5t18 -44.5t-18 -44t-44 -18t-44 18t-18 44zM479 52q0 26 18 44.5t44 18.5t44 -18.5t18 -44.5t-18 -44t-44 -18t-44 18t-18 44z" />
    <glyph glyph-name="quotesinglbase" unicode="&#x201a;" horiz-adv-x="192" 
d="M110 -128h-81l33 246h113z" />
    <glyph glyph-name="quotedblbase" unicode="&#x201e;" horiz-adv-x="391" 
d="M118 -128h-81l33 246h113zM296 -128h-81l33 246h113z" />
    <glyph glyph-name="periodcentered" unicode="&#xb7;" horiz-adv-x="186" 
d="M168 478l-56 -178h-79l24 178h111z" />
    <glyph glyph-name="approxequal" unicode="&#x2248;" horiz-adv-x="577" 
d="M384 171q22 0 44 8.5t39.5 18.5t29 19l11.5 9l21 -19q5 -5 12 -11.5t6 -7.5q-5 -5 -20 -19t-36.5 -28t-49 -25t-57.5 -11q-35 0 -58 13t-43 27q-19 14 -38 24t-48 10q-32 0 -62 -16.5t-47 -45.5l-57 33q1 1 11.5 16.5t31 32.5t51 31.5t72.5 14.5q45 0 74 -15.5t51 -31.5
l4 -3q15 -11 28 -17.5t30 -6.5zM383 375q22 0 44 8.5t39.5 18.5t29 19l11.5 9l21 -19q5 -5 12 -11.5t6 -7.5q-5 -5 -20 -19t-36.5 -28t-49 -25t-57.5 -11q-35 0 -58 13t-43 27q-19 14 -38 24t-48 10q-32 0 -62 -16.5t-47 -45.5l-57 33q1 1 11.5 16.5t31 32.5t51 31.5
t72.5 14.5q45 0 74 -15.5t51 -31.5l4 -3q15 -11 28 -17.5t30 -6.5z" />
    <glyph glyph-name="florin" unicode="&#x192;" horiz-adv-x="494" 
d="M12 -124q0 26 18 44.5t44 18.5q24 0 42 -16.5t20 -40.5q29 6 45.5 31t16.5 71v408h-82v67l82 20v88q0 52 13 89t35.5 61t52 35.5t62.5 11.5q18 0 39 -3.5t39 -11.5t30 -23t12 -37q0 -26 -18 -44t-44 -18q-25 0 -42.5 16.5t-19.5 40.5q-29 -6 -45.5 -31t-16.5 -71v-103
h148v-87h-148v-393q0 -52 -13.5 -89t-36 -61t-52 -35.5t-62.5 -11.5q-18 0 -38.5 3.5t-38.5 11.5t-30 22.5t-12 36.5z" />
    <glyph glyph-name="endash" unicode="&#x2013;" horiz-adv-x="699" 
d="M655 300v-66h-611v66h611z" />
    <glyph glyph-name="emdash" unicode="&#x2014;" horiz-adv-x="793" 
d="M749 300v-66h-705v66h705z" />
    <glyph glyph-name="guillemotright" unicode="&#xbb;" horiz-adv-x="461" 
d="M218 455v109l227 -219v-89l-227 -209v110l161 143zM34 409v109l191 -173v-91l-195 -168v112l126 102z" />
    <glyph glyph-name="guillemotleft" unicode="&#xab;" horiz-adv-x="460" 
d="M82 300l161 -143v-110l-227 209v89l227 219v-109zM305 300l126 -102v-112l-195 168v91l191 173v-109z" />
    <glyph glyph-name="oslash" unicode="&#xf8;" horiz-adv-x="536" 
d="M113 47q-39 35 -62 84.5t-23 107.5q0 52 19 98t51.5 80t76 53.5t93.5 19.5t97 -22l33 56l57 -34l-34 -58q40 -35 63.5 -84.5t23.5 -108.5q0 -52 -19 -98t-51.5 -80t-76.5 -53.5t-93 -19.5q-52 0 -99 22l-27 -45l-57 34zM409 239q0 32 -10.5 60.5t-27.5 50.5l-157 -264
q25 -12 54 -12t55 13t45 35.5t30 52.5t11 64zM268 403q-29 0 -55 -13t-45.5 -35t-30.5 -52t-11 -64q0 -32 9.5 -60t26.5 -50l157 263q-25 11 -51 11z" />
    <glyph glyph-name="Oslash" unicode="&#xd8;" horiz-adv-x="760" 
d="M167 66q-63 51 -100.5 126t-37.5 163q0 74 27.5 140.5t75.5 116t112 78.5t136 29q41 0 79.5 -10t73.5 -27l32 54l57 -34l-33 -56q65 -51 103.5 -127t38.5 -164q0 -75 -28 -141t-76 -115.5t-112 -78.5t-136 -29q-42 0 -81.5 10t-74.5 28l-32 -54l-57 34zM380 90
q51 0 95.5 20.5t77.5 56.5t52 84.5t19 103.5q0 61 -23.5 113.5t-64.5 88.5l-262 -442q50 -25 106 -25zM135 355q0 -61 23 -113t62 -88l261 441q-23 11 -48.5 17.5t-52.5 6.5q-51 0 -95.5 -20.5t-77.5 -56.5t-52.5 -84t-19.5 -103z" />
  </font>
</defs>
</svg>
