<?xml version="1.0" standalone="no"?>
<!DOCTYPE svg PUBLIC "-//W3C//DTD SVG 1.1//EN" "http://www.w3.org/Graphics/SVG/1.1/DTD/svg11.dtd" >
<svg xmlns="http://www.w3.org/2000/svg" xmlns:xlink="http://www.w3.org/1999/xlink" version="1.1">
<metadata>
Created by FontForge 20201107 at Thu Feb 17 17:45:11 2022
 By Unknown
Copyright (c) 2018 Commercial Type, Inc.. All rights reserved.
</metadata>
<defs>
<font id="CanelaText-Regular" horiz-adv-x="256" >
  <font-face 
    font-family="Canela Text Regular Trial"
    font-weight="400"
    font-stretch="normal"
    units-per-em="1000"
    panose-1="0 0 0 0 0 0 0 0 0 0"
    ascent="779"
    descent="-221"
    x-height="506"
    cap-height="732"
    bbox="2 -272 1009 806"
    underline-thickness="40"
    underline-position="-60"
    unicode-range="U+0020-201D"
  />
<missing-glyph horiz-adv-x="146" 
 />
    <glyph glyph-name=".notdef" horiz-adv-x="146" 
 />
    <glyph glyph-name=".null" horiz-adv-x="0" 
 />
    <glyph glyph-name="nonmarkingreturn" horiz-adv-x="333" 
 />
    <glyph glyph-name="space" unicode=" " horiz-adv-x="237" 
 />
    <glyph glyph-name="exclam" unicode="!" horiz-adv-x="239" 
d="M177 732v-2l-40 -536h-35l-40 536v2h115zM119 -5q-27 0 -46 19.5t-19 46.5q0 28 19 47.5t46 19.5t46.5 -19.5t19.5 -47.5q0 -26 -19.5 -46t-46.5 -20z" />
    <glyph glyph-name="quotedbl" unicode="&#x22;" horiz-adv-x="336" 
d="M87 530l-39 202h99l-39 -202h-21zM227 530l-39 202h99l-39 -202h-21z" />
    <glyph glyph-name="quotesingle" unicode="'" horiz-adv-x="196" 
d="M87 530l-39 202h99l-39 -202h-21z" />
    <glyph glyph-name="comma" unicode="," 
d="M57 -141l-14 22q65 45 65 103q0 34 -46 86v2l91 67q23 -15 37.5 -40t14.5 -50q0 -54 -45 -105.5t-103 -84.5z" />
    <glyph glyph-name="hyphen" unicode="-" horiz-adv-x="325" 
d="M32 249v68h261v-68h-261z" />
    <glyph glyph-name="period" unicode="." 
d="M128 -5q-27 0 -46 19.5t-19 46.5q0 28 19 47.5t46 19.5t46.5 -19.5t19.5 -47.5q0 -26 -19.5 -46t-46.5 -20z" />
    <glyph glyph-name="zero" unicode="0" horiz-adv-x="593" 
d="M296 -12q-106 0 -183 82.5t-76 192.5t77.5 192t181.5 82q106 0 183 -82t77 -192t-77 -192.5t-183 -82.5zM296 29q74 0 110 67t36 167q0 99 -36.5 166t-109.5 67q-49 0 -83 -34t-48.5 -85t-14.5 -114q0 -100 36.5 -167t109.5 -67z" />
    <glyph glyph-name="one" unicode="1" horiz-adv-x="325" 
d="M270 0h-216v2q33 35 43.5 67t10.5 97v278h-85v20l188 73h3v-371q0 -65 11 -96.5t45 -67.5v-2z" />
    <glyph glyph-name="two" unicode="2" horiz-adv-x="474" 
d="M399 0h-386v26q270 166 270 345q0 61 -25.5 93t-68.5 32q-78 0 -141 -133l-18 6l22 133q61 35 149 35q92 0 144 -42t52 -118q0 -77 -60 -150t-170 -135h155q40 0 60 14t41 53l16 -7z" />
    <glyph glyph-name="three" unicode="3" horiz-adv-x="504" 
d="M137 148v15q93 23 145 79.5t52 134.5q0 56 -25 87.5t-68 31.5q-87 0 -163 -143l-16 5l21 146q66 33 162 33q89 0 140.5 -41t51.5 -116q0 -120 -127 -183q64 -30 104 -88t40 -134q0 -102 -71.5 -168.5t-182.5 -66.5q-55 0 -102.5 14.5t-69.5 31.5l-26 172l17 6
q51 -96 93 -140.5t101 -44.5q62 0 99 43.5t37 106.5q0 88 -59.5 144t-152.5 75z" />
    <glyph glyph-name="four" unicode="4" horiz-adv-x="550" 
d="M304 -207v207h-300v20l390 515h18v-456h115l-17 -79h-98v-207h-108zM100 79h204v271z" />
    <glyph glyph-name="five" unicode="5" horiz-adv-x="505" 
d="M91 215l84 294h301l-18 -92h-270l-31 -107q122 -38 195 -115t73 -199q0 -115 -67 -185.5t-175 -70.5q-57 0 -103.5 17.5t-66.5 35.5l-8 160l19 6q41 -96 79.5 -139t95.5 -43q63 0 99 48t36 123q0 97 -63.5 165.5t-179.5 101.5z" />
    <glyph glyph-name="six" unicode="6" horiz-adv-x="588" 
d="M501 775q-113 -44 -189.5 -122.5t-115.5 -177.5q44 47 121 47q103 0 166 -75.5t63 -184.5q0 -113 -71 -193.5t-175 -80.5q-114 0 -184 88t-70 214q0 72 25 143t76 140t140 128t206 96zM155 263q0 -63 12.5 -112.5t46 -85t85.5 -35.5q69 0 103.5 62t34.5 176
q0 108 -34.5 156.5t-102.5 48.5q-88 0 -129 -74q-16 -67 -16 -136z" />
    <glyph glyph-name="seven" unicode="7" horiz-adv-x="489" 
d="M178 -260h-113q34 102 74 196t90.5 189t79 145t85.5 147h-357l22 92h413v-11q-189 -343 -294 -758z" />
    <glyph glyph-name="eight" unicode="8" horiz-adv-x="514" 
d="M260 791q87 0 143.5 -49.5t56.5 -122.5q0 -122 -147 -184q74 -47 118.5 -105t44.5 -139q0 -96 -64.5 -149.5t-158.5 -53.5q-96 0 -155.5 53.5t-59.5 135.5q0 70 42.5 127.5t106.5 90.5q-64 44 -98.5 89.5t-34.5 112.5q0 88 58.5 141t147.5 53zM134 632q0 -31 11 -56.5
t36 -48.5t44.5 -36.5t57.5 -37.5q101 53 101 161q0 61 -33 98t-93 37q-57 0 -90.5 -33t-33.5 -84zM122 188q0 -72 34.5 -115t95.5 -43q62 0 97.5 39t35.5 100q0 47 -27.5 88t-52.5 59.5t-80 53.5l-9 6q-94 -73 -94 -188z" />
    <glyph glyph-name="nine" unicode="9" horiz-adv-x="588" 
d="M87 -250q113 44 189.5 123t116.5 178q-44 -48 -122 -48q-103 0 -166 75.5t-63 184.5q0 113 71 193.5t175 80.5q114 0 184 -87.5t70 -213.5q0 -72 -25 -143t-76 -140.5t-140 -128.5t-206 -96zM150 258q0 -206 138 -206q87 0 128 74q17 65 17 137q0 98 -34.5 165t-109.5 67
q-69 0 -104 -62t-35 -175z" />
    <glyph glyph-name="question" unicode="?" horiz-adv-x="436" 
d="M168 194h-36q7 46 27 86.5t43 69.5t45.5 60.5t37 75t14.5 97.5q0 126 -97 126q-50 0 -82 -34.5t-68 -108.5l-17 5l23 150q69 26 146 26q98 0 150.5 -42.5t52.5 -126.5q0 -54 -19 -97t-49.5 -74t-62 -59.5t-62.5 -68t-46 -85.5zM143 -5q-27 0 -46 19.5t-19 46.5
q0 28 19 47.5t46 19.5t46.5 -19.5t19.5 -47.5q0 -26 -19.5 -46t-46.5 -20z" />
    <glyph glyph-name="A" unicode="A" horiz-adv-x="681" 
d="M171 0h-154v2q32 34 50 68.5t44 103.5l209 566h41l212 -575q25 -66 44.5 -100t47.5 -63v-2h-196v2q35 52 -7 168l-35 96h-241l-19 -52q-50 -134 4 -212v-2zM200 305h212l-106 288z" />
    <glyph glyph-name="B" unicode="B" horiz-adv-x="639" 
d="M607 204q0 -92 -71 -148t-217 -56h-258v2q25 45 33 79.5t8 94.5v380q0 61 -8 95t-33 79v2q78 0 151.5 2t105.5 2q252 1 252 -172q0 -63 -34 -109.5t-102 -67.5q90 -13 131.5 -63.5t41.5 -119.5zM207 401h124q68 0 100.5 45.5t32.5 110.5q0 68 -41.5 104t-119.5 36
q-51 0 -96 -9v-287zM307 39q90 0 137 43t47 117t-38 118t-113 44h-133v-311q59 -11 100 -11z" />
    <glyph glyph-name="C" unicode="C" horiz-adv-x="766" 
d="M705 256l-22 -198q-24 -20 -105 -46.5t-169 -26.5q-170 0 -273.5 108.5t-103.5 272.5q0 162 112 271.5t285 109.5q131 0 250 -48l23 -181l-17 -5q-70 107 -127.5 150.5t-141.5 43.5q-134 0 -199.5 -92.5t-65.5 -248.5q0 -154 65 -247.5t193 -93.5q98 0 161.5 59.5
t117.5 176.5z" />
    <glyph glyph-name="D" unicode="D" horiz-adv-x="760" 
d="M61 0v2q25 41 33 71t8 83v420q0 53 -8 83t-33 71v2q62 0 135.5 2t140.5 2q184 0 287.5 -94.5t103.5 -270.5q0 -177 -102.5 -274t-291.5 -97h-273zM608 371q0 170 -69 248t-211 78h-121v-660l119 2q149 4 215.5 87t66.5 245z" />
    <glyph glyph-name="E" unicode="E" horiz-adv-x="653" 
d="M62 0v2q22 50 31 83.5t9 78.5v404q0 46 -9 79t-31 83v2h457l39 -175l-17 -8q-13 15 -46.5 56.5t-56 63t-40.5 22.5l-190 6v-308h99q43 0 105 103h18v-243h-18q-14 22 -21.5 32t-23.5 29.5t-31.5 29t-30.5 9.5h-97v-314l199 7q27 1 52 14.5t52 43.5t41.5 49.5t43.5 61.5
l17 -8l-44 -203h-507z" />
    <glyph glyph-name="F" unicode="F" horiz-adv-x="604" 
d="M248 2v-2h-187v2q25 45 33 79.5t8 93.5v382q0 60 -8 94t-33 79v2h483l39 -184l-18 -6q-15 16 -47 59t-55 66.5t-41 23.5l-215 7v-302h114q21 0 46 21t37 37t33 45h9v-242h-9q-49 67 -76 85q-21 15 -40 15h-114v-182q0 -60 8 -94t33 -79z" />
    <glyph glyph-name="G" unicode="G" horiz-adv-x="797" 
d="M715 90q-2 -2 -19 -13.5t-24.5 -16.5t-27.5 -17t-34.5 -18t-38 -15t-45 -13.5t-49.5 -8t-57 -3.5q-175 0 -281.5 108.5t-106.5 272.5t110 272.5t295 108.5q112 0 256 -48l22 -171l-18 -5q-66 99 -127 141.5t-143 42.5q-135 0 -205.5 -95t-70.5 -247q0 -154 66 -247
t203 -93q88 0 141.5 37t53.5 109q0 51 -9.5 85t-37.5 76v2h188v-2q-25 -45 -33 -79.5t-8 -95.5v-67z" />
    <glyph glyph-name="H" unicode="H" horiz-adv-x="775" 
d="M61 0v2q25 45 33 79.5t8 93.5v382q0 60 -8 94t-33 79v2h187v-2q-25 -45 -33 -79t-8 -94v-160h361v160q0 59 -8 93.5t-33 79.5v2h187v-2q-25 -45 -33 -79t-8 -94v-382q0 -60 8 -94t33 -79v-2h-187v2q25 45 33 79.5t8 93.5v182h-361v-182q0 -60 8 -94t33 -79v-2h-187z" />
    <glyph glyph-name="I" unicode="I" horiz-adv-x="310" 
d="M61 0v2q25 44 33 78t8 95v382q0 61 -8 95t-33 78v2h187v-2q-25 -45 -33 -79t-8 -94v-382q0 -60 8.5 -94t33.5 -79l-1 -2h-187z" />
    <glyph glyph-name="J" unicode="J" horiz-adv-x="487" 
d="M395 184q0 -199 -206 -199q-65 0 -121 22l-19 169l17 7q53 -90 83 -124.5t69 -34.5q72 0 72 111v422q0 60 -8 94t-33 79v2h187v-2q-25 -45 -33 -79t-8 -94v-373z" />
    <glyph glyph-name="K" unicode="K" horiz-adv-x="681" 
d="M665 0h-160l-279 364l176 221q45 57 56.5 89.5t-6.5 55.5v2h176v-2q-61 -30 -98 -61.5t-76 -81.5l-135 -168l225 -295q63 -83 121 -122v-2zM61 0v2q25 45 33 79.5t8 93.5v382q0 60 -8 94t-33 79v2h187v-2q-25 -45 -33 -79t-8 -94v-382q0 -60 8.5 -94t33.5 -79l-1 -2h-187
z" />
    <glyph glyph-name="L" unicode="L" horiz-adv-x="608" 
d="M209 557v-524l168 7q53 2 98.5 47t93.5 123l17 -7l-46 -203h-479v2q25 46 33.5 81.5t8.5 97.5v376q0 60 -8 94t-33 79v2h188v-2q-25 -44 -33 -78t-8 -95z" />
    <glyph glyph-name="M" unicode="M" horiz-adv-x="916" 
d="M668 0v2q25 44 33 78t8 92v448l-267 -598h-29l-272 616l3 -448q1 -65 15 -101.5t57 -86.5v-2h-175v2q37 51 49 87.5t12 100.5v407q-3 46 -19.5 73.5t-58.5 59.5v2h190l248 -569l254 569h176v-2q-47 -35 -62.5 -66.5t-15.5 -93.5v-398q0 -59 8 -92t32 -78v-2h-186z" />
    <glyph glyph-name="N" unicode="N" horiz-adv-x="739" 
d="M599 -3l-459 616l5 -419q0 -67 13.5 -104t55.5 -88v-2h-172v2q37 51 48.5 88.5t11.5 103.5v410q-6 42 -23.5 69t-55.5 57v2h158l422 -557l-3 363q-1 66 -13 103.5t-49 88.5v2h163v-2q-36 -51 -48 -88.5t-12 -103.5v-538z" />
    <glyph glyph-name="O" unicode="O" horiz-adv-x="814" 
d="M406 -15q-95 0 -181 50t-139.5 138.5t-53.5 191.5t53.5 192t139.5 139.5t181 50.5t181.5 -50.5t140.5 -139.5t54 -192q0 -156 -114.5 -268t-261.5 -112zM406 25q117 0 186.5 96t69.5 244t-69.5 245t-186.5 97q-116 0 -185.5 -97t-69.5 -245t69 -244t186 -96z" />
    <glyph glyph-name="P" unicode="P" horiz-adv-x="597" 
d="M102 175v381q0 61 -8 95t-33 79v2h238q148 0 212 -55.5t64 -146.5q0 -106 -76 -172t-215 -66h-77v-117q0 -60 8.5 -94t33.5 -79l-1 -2h-187v2q25 45 33 79.5t8 93.5zM283 693q-46 0 -76 -2v-360h74q93 0 138 53.5t45 139.5q0 169 -181 169z" />
    <glyph glyph-name="Q" unicode="Q" horiz-adv-x="814" 
d="M787 -147q-38 -23 -108 -23q-63 0 -119 18.5t-94.5 49t-57.5 50t-34 39.5q-138 13 -240 122t-102 256q0 103 53.5 192t139.5 139.5t181 50.5t181.5 -50.5t140.5 -139.5t54 -192q0 -150 -106 -259.5t-247 -119.5q161 -110 399 -46zM406 25q117 0 186.5 96t69.5 244
t-69.5 245t-186.5 97q-116 0 -185.5 -97t-69.5 -245t69 -244t186 -96z" />
    <glyph glyph-name="R" unicode="R" horiz-adv-x="669" 
d="M248 2v-2h-187v2q25 45 33 79.5t8 94.5v380q0 61 -8 95t-33 79v2h255q247 0 247 -181q0 -140 -140 -190l114 -221q32 -62 55 -88t62 -46v-6h-165l-176 342h-106v-166q0 -61 8 -95t33 -79zM296 693q-45 0 -89 -1v-311h90q155 0 155 166q0 72 -35 109t-121 37z" />
    <glyph glyph-name="S" unicode="S" horiz-adv-x="576" 
d="M466 719l20 -166l-17 -5q-43 87 -91 123t-106 36q-57 0 -87 -27t-30 -74q0 -19 6 -36.5t12 -30t24 -27.5t26 -21.5t35 -21t34.5 -18t39.5 -19.5q47 -22 75 -38.5t61.5 -45t49.5 -66t16 -86.5q0 -106 -73.5 -158.5t-186.5 -52.5q-101 0 -204 37l-20 190l17 7
q50 -101 107.5 -148t130.5 -47q69 0 104.5 36.5t35.5 92.5q0 28 -10 52.5t-23 40.5t-39.5 34.5t-43 27.5t-51.5 26l-43 21.5t-39 21.5t-40 26t-30.5 28t-28.5 36t-15 41t-7 50q0 95 65 142t165 47q82 0 161 -28z" />
    <glyph glyph-name="T" unicode="T" horiz-adv-x="735" 
d="M460 2v-2h-185v2q24 44 32 78t8 92v524l-115 -4q-11 -1 -25.5 -11.5t-33 -34t-30.5 -40t-35 -50t-29 -42.5l-17 7l39 211h598l38 -211l-17 -7q-11 15 -30 43.5t-33.5 48.5t-31 41t-31.5 32.5t-27 12.5l-115 4v-524q0 -59 8 -92t32 -78z" />
    <glyph glyph-name="U" unicode="U" horiz-adv-x="720" 
d="M370 -15q-120 0 -196.5 62.5t-76.5 190.5v319q0 61 -8 95t-33 78v2h187v-2q-40 -73 -40 -173v-316q0 -112 49.5 -162.5t134.5 -50.5q102 0 148 62.5t46 159.5v288q0 66 -14 103.5t-58 88.5v2h178l5 -2q-42 -51 -55.5 -88.5t-13.5 -103.5v-287q0 -56 -13 -102t-41.5 -84
t-79 -59t-119.5 -21z" />
    <glyph glyph-name="V" unicode="V" horiz-adv-x="680" 
d="M17 732h201v-2q-17 -24 -18.5 -66t18.5 -102l156 -422l139 378q50 138 -2 212v2h153v-2q-32 -35 -51 -70.5t-43 -100.5l-210 -567h-41l-212 575q-25 66 -44 100t-46 63v2z" />
    <glyph glyph-name="W" unicode="W" horiz-adv-x="1025" 
d="M17 732h202v-2q-37 -55 -4 -168l127 -413l156 410l-3 8q-23 68 -41 101.5t-45 61.5v2h202v-2q-40 -58 -3 -168l138 -406l115 365q44 140 -4 209v2h152v-2q-35 -37 -55.5 -75.5t-41.5 -105.5l-176 -557h-39l-179 509l-195 -509h-39l-181 575q-21 65 -39.5 99t-46.5 64v2z
" />
    <glyph glyph-name="X" unicode="X" horiz-adv-x="729" 
d="M699 0h-223v2q17 15 13.5 52.5t-27.5 76.5l-128 200l-97 -154q-26 -40 -34 -73t-4 -53.5t17 -48.5v-2h-186v2q77 50 146 156l135 209l-145 228q-33 54 -58.5 84.5t-58.5 50.5v2h224v-2q-17 -15 -13.5 -52.5t27.5 -76.5l100 -157l77 111q42 60 47 101t-19 74v2h187v-2
q-81 -50 -154 -156l-115 -166l173 -271q36 -57 60 -86.5t56 -48.5v-2z" />
    <glyph glyph-name="Y" unicode="Y" horiz-adv-x="649" 
d="M231 0v2q24 37 32 65t8 77v190l-147 261q-53 96 -107 135v2h218v-2q-21 -17 -20.5 -51t21.5 -72l124 -226l92 161q68 118 14 188v2h167v-2q-37 -34 -62 -68t-65 -102l-129 -224v-192q0 -50 7.5 -78t32.5 -64v-2h-186z" />
    <glyph glyph-name="Z" unicode="Z" horiz-adv-x="661" 
d="M37 0v13l432 683l-149 -4q-91 -3 -144.5 -44t-102.5 -129l-17 7l51 206h498v-13l-431 -684l180 5q92 3 148 48t105 141l17 -7l-54 -222h-533z" />
    <glyph glyph-name="a" unicode="a" horiz-adv-x="561" 
d="M163 -15q-55 0 -88.5 29t-33.5 78q0 43 26.5 78.5t71 58.5t90.5 37.5t96 22.5v50q0 62 -23 89t-80 27q-83 0 -148 -44l-14 14q35 44 89.5 70.5t118.5 26.5q156 0 156 -158v-261q0 -50 42 -50q30 0 55 27l14 -12q-39 -80 -117 -80q-40 0 -63 21.5t-27 55.5
q-69 -80 -165 -80zM135 118q0 -32 21.5 -50.5t59.5 -18.5q68 0 109 49v157q-80 -15 -135 -50t-55 -87z" />
    <glyph glyph-name="b" unicode="b" horiz-adv-x="612" 
d="M82 -8v632q0 75 -49 126v2l148 54v-374h2q27 38 74.5 64t103.5 26q96 0 152.5 -72.5t56.5 -188.5q0 -120 -67.5 -198t-195.5 -78q-104 0 -171 54l-47 -47h-7zM318 24q64 0 103.5 58.5t39.5 158.5q0 110 -41 160.5t-111 50.5q-85 0 -128 -62v-193q0 -89 41 -131t96 -42z
" />
    <glyph glyph-name="c" unicode="c" horiz-adv-x="515" 
d="M463 130l16 -13q-27 -58 -81.5 -95t-130.5 -37q-103 0 -166.5 71t-63.5 188q0 119 80.5 198.5t189.5 79.5q79 0 142 -29l15 -126l-14 -4q-28 48 -70.5 83.5t-90.5 35.5q-68 0 -109.5 -54t-41.5 -146q0 -100 49.5 -156.5t133.5 -56.5q90 0 142 61z" />
    <glyph glyph-name="d" unicode="d" horiz-adv-x="618" 
d="M321 522q63 0 111 -21v121q0 82 -49 127v2l148 55v-597q0 -95 10 -128.5t39 -56.5v-2l-144 -34v104h-2q-26 -46 -74 -76.5t-112 -30.5q-97 0 -151.5 68.5t-54.5 177.5q0 123 74.5 207t204.5 84zM150 263q0 -96 38.5 -151.5t109.5 -55.5q83 0 134 75v241q-24 110 -125 110
q-71 0 -114 -61t-43 -158z" />
    <glyph glyph-name="e" unicode="e" horiz-adv-x="514" 
d="M321 69q89 0 141 60l16 -13q-28 -58 -80.5 -94.5t-126.5 -36.5q-105 0 -169.5 70.5t-64.5 187.5q0 124 71.5 201.5t170.5 77.5q94 0 150 -68t46 -158h-337v-15q0 -100 49.5 -156t133.5 -56zM277 482q-52 0 -88 -40.5t-47 -108.5l230 5v11q0 133 -95 133z" />
    <glyph glyph-name="f" unicode="f" horiz-adv-x="359" 
d="M77 0v2q26 40 26 150v314h-67v40h67v56q0 111 59.5 177.5t147.5 66.5q51 0 81 -15l15 -118l-14 -4q-18 27 -30 43t-35 35t-44 19q-35 0 -58 -41.5t-23 -116.5v-102h130v-40h-130v-314q0 -105 25 -150v-2h-150z" />
    <glyph glyph-name="g" unicode="g" horiz-adv-x="569" 
d="M262 174q-26 0 -57 7q-68 -10 -68 -52q0 -40 102 -43l111 -3q88 -2 136.5 -36.5t47.5 -96.5q-2 -75 -75 -123t-200 -48q-107 0 -172.5 34.5t-65.5 96.5q0 38 23.5 65t59.5 38q-44 26 -44 75q0 80 99 111q-43 24 -68 62.5t-25 84.5q0 74 56.5 125t138.5 51q73 0 134 -46
l142 68l2 -1v-99h-4l-112 3q37 -45 37 -101q0 -71 -58 -121.5t-140 -50.5zM262 213q50 0 74.5 36.5t24.5 96.5q0 61 -24.5 98.5t-75.5 37.5q-96 0 -96 -136q0 -60 24 -96.5t73 -36.5zM100 -71q0 -51 49 -77.5t137 -26.5q85 0 130 23t45 65q0 66 -118 70l-120 4q-51 2 -87 13
q-36 -23 -36 -71z" />
    <glyph glyph-name="h" unicode="h" horiz-adv-x="590" 
d="M59 0v2q25 67 25 195v425q0 78 -48 128v3l146 53v-382h1q78 98 176 98q72 0 111.5 -41.5t39.5 -112.5v-170q0 -76 4.5 -116.5t20.5 -79.5v-2h-148v2q24 67 24 195v148q0 46 -24.5 75.5t-76.5 29.5q-79 0 -128 -68v-185q0 -129 26 -195v-2h-149z" />
    <glyph glyph-name="i" unicode="i" horiz-adv-x="273" 
d="M130 616q-26 0 -43.5 18t-17.5 43q0 26 18 44.5t43 18.5q27 0 45 -18.5t18 -44.5t-18 -43.5t-45 -17.5zM62 0v2q25 88 25 195v139q0 79 -49 128v7l148 56v-329q0 -135 24 -196v-2h-148z" />
    <glyph glyph-name="j" unicode="j" horiz-adv-x="268" 
d="M130 616q-26 0 -43.5 18t-17.5 43q0 26 18 44.5t43 18.5q27 0 45 -18.5t18 -44.5t-18 -43.5t-45 -17.5zM16 -228l-5 16q76 39 76 142v406q0 79 -49 128v7l148 56l-2 -533q-1 -99 -47.5 -155.5t-120.5 -66.5z" />
    <glyph glyph-name="k" unicode="k" horiz-adv-x="528" 
d="M59 0v2q25 47 25 146v476q0 77 -48 125v3l146 54v-657q0 -98 27 -147v-2h-150zM521 0h-140l-187 263l114 134q54 66 27 107v2h147v-2q-70 -37 -139 -119l-66 -78l149 -209q51 -72 95 -96v-2z" />
    <glyph glyph-name="l" unicode="l" horiz-adv-x="270" 
d="M59 0v2q25 47 25 146v476q0 78 -49 125v3l147 54v-657q0 -100 26 -147v-2h-149z" />
    <glyph glyph-name="m" unicode="m" horiz-adv-x="854" 
d="M62 0v2q25 70 25 195v143q0 78 -49 129v2l143 56v-102l5 -1q62 98 164 98q106 0 125 -97l3 -1q67 98 166 98q130 0 130 -144v-180q0 -78 4 -117.5t19 -78.5v-2h-147v2q25 67 25 195v159q0 94 -79 94q-73 0 -118 -69v-183q0 -74 5 -115t22 -81v-2h-149v2q24 64 24 195v159
q0 94 -78 94q-75 0 -116 -67v-185q0 -75 4.5 -116t19.5 -80v-2h-148z" />
    <glyph glyph-name="n" unicode="n" horiz-adv-x="592" 
d="M62 0v2q25 70 25 195v143q0 78 -49 129v2l143 56v-102l5 -1q75 98 175 98q72 0 111.5 -41.5t39.5 -112.5v-170q0 -76 4.5 -116.5t19.5 -79.5v-2h-148v2q25 67 25 195v148q0 47 -24.5 76t-76.5 29q-77 0 -126 -65v-187q0 -75 4.5 -116t19.5 -80v-2h-148z" />
    <glyph glyph-name="o" unicode="o" horiz-adv-x="619" 
d="M309 -15q-113 0 -193.5 80t-78.5 188q0 108 81 188.5t191 80.5q111 0 192 -80.5t81 -188.5q0 -109 -80.5 -188.5t-192.5 -79.5zM309 24q76 0 120 66.5t44 162.5t-44.5 162.5t-119.5 66.5t-119.5 -66.5t-44.5 -162.5t44 -162.5t120 -66.5z" />
    <glyph glyph-name="p" unicode="p" horiz-adv-x="615" 
d="M62 -221v2q25 70 25 195v364q0 78 -49 129v2l143 56v-94l7 -1q65 90 175 90q96 0 154 -73t58 -189q0 -120 -67.5 -197.5t-196.5 -77.5q-71 0 -125 26v-34q0 -75 4.5 -116t19.5 -80v-2h-148zM319 24q67 0 109.5 58.5t42.5 158.5q0 106 -42 159t-114 53q-83 0 -129 -62
v-245q13 -63 50 -92.5t83 -29.5z" />
    <glyph glyph-name="q" unicode="q" horiz-adv-x="607" 
d="M554 -221h-147v2q25 64 25 191v116q-26 -44 -72 -73.5t-109 -29.5q-96 0 -152.5 68.5t-56.5 177.5q0 122 74.5 206.5t204.5 84.5q109 0 159 -52l47 47h4v-544q0 -133 23 -192v-2zM146 263q0 -95 40.5 -151t112.5 -56q83 0 133 75v236q-12 61 -46 88t-79 27
q-72 0 -116.5 -61t-44.5 -158z" />
    <glyph glyph-name="r" unicode="r" horiz-adv-x="386" 
d="M62 0v2q25 70 25 195v143q0 78 -49 129v2l143 56v-126h5q3 3 22 24.5t26.5 29t25.5 24t30.5 23.5t30.5 13.5t35 6.5l-2 -124l-13 -2q-40 18 -81 18q-14 0 -35 -15t-39 -40v-161q0 -75 4.5 -116t19.5 -80v-2h-148z" />
    <glyph glyph-name="s" unicode="s" horiz-adv-x="445" 
d="M369 501l12 -124l-16 -4q-59 109 -154 109q-41 0 -63 -18t-22 -48q0 -10 2 -18.5t7.5 -16t10 -13.5t15 -12.5t16.5 -10.5t20 -10l21 -9t23 -9.5t23 -9.5q33 -14 54.5 -25.5t45.5 -31t35.5 -47t11.5 -63.5q0 -76 -55 -115.5t-144 -39.5q-74 0 -156 28l-11 143l16 4
q67 -136 167 -136q49 0 72.5 23t23.5 58q0 39 -26.5 61t-79.5 44q-2 1 -22 9.5t-24 10.5t-21.5 10.5t-22.5 12.5t-19 13.5t-19 16.5t-14 18.5t-12.5 22.5t-6.5 25t-3 30q0 74 53.5 108.5t132.5 34.5q76 0 129 -21z" />
    <glyph glyph-name="t" unicode="t" horiz-adv-x="378" 
d="M341 52q-47 -67 -132 -67q-119 0 -119 126v355h-58v18l148 134h11v-112h140v-40h-140v-353q0 -67 69 -67q48 0 70 20z" />
    <glyph glyph-name="u" unicode="u" horiz-adv-x="571" 
d="M217 -15q-67 0 -102.5 46.5t-35.5 128.5v236q0 70 -47 107v4h145v-330q0 -113 95 -113q74 0 113 77v255q0 74 -49 107v4h147v-336q0 -74 10.5 -101t38.5 -46v-2l-142 -34v115q-35 -55 -75 -86.5t-98 -31.5z" />
    <glyph glyph-name="v" unicode="v" horiz-adv-x="513" 
d="M425 373l-158 -382h-26l-161 388q-39 96 -68 125v2h176v-2q-32 -45 -1 -118l100 -246l89 219q35 85 -7 145v2h133v-2q-26 -26 -41 -53t-36 -78z" />
    <glyph glyph-name="w" unicode="w" horiz-adv-x="768" 
d="M682 373l-135 -382h-26l-139 350l-142 -350h-26l-131 388q-31 92 -66 125v2h176v-2q-30 -38 -3 -118l76 -231l96 236q-32 83 -62 113v2h175v-2q-31 -43 -1 -118l91 -230l72 203q34 99 -17 145v2h131v-2q-17 -18 -29.5 -38.5t-18.5 -36t-21 -56.5z" />
    <glyph glyph-name="x" unicode="x" horiz-adv-x="529" 
d="M137 127l78 117l-86 136q-58 89 -100 124v2h183v-2q-17 -18 -12 -40t31 -63l62 -97l39 62q32 51 37 83t-14 55v2h142v-2q-38 -31 -62 -56.5t-52 -68.5l-68 -109l92 -145q52 -83 102 -123v-2h-182v2q12 15 11.5 30t-7.5 28.5t-27 44.5l-68 107l-47 -73
q-34 -51 -39.5 -80.5t12.5 -56.5v-2h-142v2q39 30 64.5 56t52.5 69z" />
    <glyph glyph-name="y" unicode="y" horiz-adv-x="513" 
d="M58 -221l-2 98q20 0 40 4.5t44.5 14t45.5 30.5t33 50l14 34l-153 369q-39 96 -68 125v2h176v-2q-32 -45 -1 -118l100 -245l89 218q35 85 -7 145v2h133v-2q-26 -26 -41 -53t-36 -78l-176 -428q-37 -89 -81.5 -124t-109.5 -42z" />
    <glyph glyph-name="z" unicode="z" horiz-adv-x="500" 
d="M468 154l-42 -154h-395v9l292 458l-122 -4q-36 -1 -68 -27t-75 -82l-15 7l42 145h368v-11l-291 -458l136 3q44 2 78 29.5t77 90.5z" />
    <glyph glyph-name="quoteleft" unicode="&#x2018;" horiz-adv-x="241" 
d="M178 755l11 -15q-53 -46 -53 -93q0 -29 39 -74v-2l-75 -60q-43 29 -43 79q0 46 36.5 90.5t84.5 74.5z" />
    <glyph glyph-name="quoteright" unicode="&#x2019;" horiz-adv-x="241" 
d="M63 511l-11 15q53 46 53 93q0 29 -39 74v2l75 60q43 -29 43 -79q0 -46 -36.5 -90.5t-84.5 -74.5z" />
    <glyph glyph-name="quotedblleft" unicode="&#x201c;" horiz-adv-x="406" 
d="M177 755l11 -15q-52 -45 -52 -93q0 -29 39 -74v-2l-75 -60q-44 32 -44 79q0 46 37 90.5t84 74.5zM343 748l11 -15q-53 -45 -53 -93q0 -26 39 -74v-2l-75 -59q-43 29 -43 78q0 46 36.5 90.5t84.5 74.5z" />
    <glyph glyph-name="quotedblright" unicode="&#x201d;" horiz-adv-x="406" 
d="M63 511l-11 16q53 45 53 92q0 29 -39 74v2l75 60q43 -29 43 -79q0 -46 -36.5 -90.5t-84.5 -74.5zM229 511l-12 16q53 45 53 92q0 29 -39 74v2l75 60q43 -29 43 -79q0 -46 -36.5 -90.5t-83.5 -74.5z" />
    </font>
</defs>
</svg>
