<?xml version="1.0" standalone="no"?>
<!DOCTYPE svg PUBLIC "-//W3C//DTD SVG 1.1//EN" "http://www.w3.org/Graphics/SVG/1.1/DTD/svg11.dtd" >
<svg xmlns="http://www.w3.org/2000/svg" xmlns:xlink="http://www.w3.org/1999/xlink" version="1.1">
<metadata>
Created by FontForge 20201107 at Thu Feb 17 17:45:12 2022
 By Unknown
Copyright (c) 2018 Commercial Type, Inc.. All rights reserved.
</metadata>
<defs>
<font id="CanelaText-RegularItalic" horiz-adv-x="249" >
  <font-face 
    font-family="Canela Text Regular Trial"
    font-weight="400"
    font-style="italic"
    font-stretch="normal"
    units-per-em="1000"
    panose-1="0 0 0 0 0 0 0 0 0 0"
    ascent="779"
    descent="-221"
    x-height="506"
    cap-height="732"
    bbox="-95 -272 946 806"
    underline-thickness="40"
    underline-position="-60"
    slope="-12"
    unicode-range="U+0020-201D"
  />
<missing-glyph horiz-adv-x="149" 
 />
    <glyph glyph-name=".notdef" horiz-adv-x="149" 
 />
    <glyph glyph-name=".null" horiz-adv-x="0" 
 />
    <glyph glyph-name="nonmarkingreturn" horiz-adv-x="333" 
 />
    <glyph glyph-name="space" unicode=" " horiz-adv-x="196" 
 />
    <glyph glyph-name="exclam" unicode="!" horiz-adv-x="227" 
d="M260 732v-2l-136 -536h-36l67 536l1 2h104zM90 -5q-26 0 -44.5 19t-18.5 45q0 28 18.5 46.5t44.5 18.5q27 0 45.5 -18.5t18.5 -46.5q0 -26 -18.5 -45t-45.5 -19z" />
    <glyph glyph-name="quotedbl" unicode="&#x22;" horiz-adv-x="303" 
d="M141 531h-20l-8 201h117zM281 531h-20l-8 201h117z" />
    <glyph glyph-name="quotesingle" unicode="'" horiz-adv-x="163" 
d="M144 531h-20l-8 201h117z" />
    <glyph glyph-name="comma" unicode="," 
d="M-17 -137l-10 17q40 26 65 58.5t25 54.5q0 27 -30 74v2l98 64q36 -29 36 -73q0 -55 -56.5 -108t-127.5 -89z" />
    <glyph glyph-name="hyphen" unicode="-" horiz-adv-x="316" 
d="M42 249l11 68h238l-10 -68h-239z" />
    <glyph glyph-name="period" unicode="." 
d="M100 -5q-26 0 -45 19t-19 45q0 27 19 46t45 19t45 -19t19 -46q0 -25 -19 -44.5t-45 -19.5z" />
    <glyph glyph-name="zero" unicode="0" horiz-adv-x="505" 
d="M203 -15q-76 0 -124.5 62.5t-48.5 156.5q0 129 85 231t190 102q76 0 124.5 -62t48.5 -156q0 -129 -85 -231.5t-190 -102.5zM208 25q51 0 92.5 58t61 135t19.5 150q0 59 -20 94t-61 35q-51 0 -92 -58t-60.5 -135t-19.5 -149q0 -130 80 -130z" />
    <glyph glyph-name="one" unicode="1" horiz-adv-x="297" 
d="M186 163q-12 -65 -9 -96t25 -65v-2h-185v2q34 33 48.5 64.5t25.5 96.5l50 279h-73l4 21l177 74h4z" />
    <glyph glyph-name="two" unicode="2" horiz-adv-x="443" 
d="M340 0h-357v25q301 193 301 379q0 93 -62 93q-36 0 -69 -33.5t-77 -103.5l-16 7l42 135q55 35 129 35q72 0 111.5 -38t39.5 -102q0 -82 -66 -159t-186 -143h153q33 0 50.5 14.5t43.5 57.5l16 -8z" />
    <glyph glyph-name="three" unicode="3" horiz-adv-x="427" 
d="M349 -10q0 -106 -67.5 -178t-176.5 -72q-50 0 -94.5 15t-66.5 39l-6 164l15 2q31 -92 71 -137t97 -45q65 0 99 48.5t34 117.5q0 75 -41.5 127.5t-108.5 76.5v17q211 78 211 232q0 50 -21 75t-55 25q-41 0 -75.5 -33.5t-78.5 -102.5l-15 6l42 137q57 33 133 33
q72 0 112 -38.5t40 -101.5q0 -68 -46 -122t-124 -84q122 -66 122 -201z" />
    <glyph glyph-name="four" unicode="4" horiz-adv-x="466" 
d="M-43 0v19l429 518h22l-83 -459h98l-27 -78h-85l-38 -207h-95l38 207h-259zM54 78h176l49 269z" />
    <glyph glyph-name="five" unicode="5" horiz-adv-x="420" 
d="M55 211l119 302h264l-32 -96h-231l-45 -113q188 -84 188 -281q0 -123 -66.5 -203t-167.5 -80q-94 0 -150 54l-6 164l16 2q31 -92 68.5 -137t89.5 -45q59 0 94.5 52t35.5 137q0 93 -47.5 154.5t-129.5 89.5z" />
    <glyph glyph-name="six" unicode="6" horiz-adv-x="509" 
d="M511 775q-196 -90 -304 -304q47 51 114 51q74 0 117 -56t43 -147q0 -129 -80 -230.5t-188 -101.5q-83 0 -130.5 62.5t-47.5 168.5q0 77 28 158.5t83 160.5t148 148t210 112zM130 166q0 -136 87 -136q51 0 91.5 54.5t58.5 125t18 136.5q0 127 -90 127q-71 0 -119 -73
q-46 -120 -46 -234z" />
    <glyph glyph-name="seven" unicode="7" horiz-adv-x="438" 
d="M59 -260h-109q151 338 416 677h-302l35 95h362l-1 -11q-224 -323 -401 -761z" />
    <glyph glyph-name="eight" unicode="8" horiz-adv-x="483" 
d="M481 634q0 -63 -38 -116.5t-121 -85.5q53 -54 82.5 -105t29.5 -121q0 -99 -63.5 -158t-149.5 -59q-80 0 -134.5 49.5t-54.5 137.5q0 74 44 135.5t129 97.5q-38 44 -59 85.5t-21 95.5q0 91 57.5 146.5t138.5 55.5q68 0 114 -42.5t46 -115.5zM205 629q0 -49 23.5 -87.5
t68.5 -84.5q113 60 113 174q0 58 -27 88.5t-73 30.5q-49 0 -77 -33.5t-28 -87.5zM100 175q0 -69 34 -106.5t92 -37.5q59 0 91.5 36.5t32.5 100.5q0 34 -8.5 62.5t-31.5 59.5t-34.5 44t-45.5 48q-130 -74 -130 -207z" />
    <glyph glyph-name="nine" unicode="9" horiz-adv-x="509" 
d="M6 -251q195 90 303 302q-48 -48 -113 -48q-74 0 -116.5 56t-42.5 147q0 129 79.5 230t187.5 101q84 0 131.5 -62t47.5 -168q0 -78 -28.5 -159t-83.5 -160.5t-147.5 -148t-210.5 -111.5zM133 179q0 -127 89 -127q71 0 118 70q47 124 47 237q0 136 -87 136q-39 0 -72 -32
t-53 -80.5t-31 -102t-11 -101.5z" />
    <glyph glyph-name="question" unicode="?" horiz-adv-x="417" 
d="M150 194h-36q10 63 38.5 113.5t60.5 83.5t62.5 64t51 70.5t20.5 88.5q0 46 -17.5 70.5t-48.5 24.5q-36 0 -71.5 -33t-94.5 -108l-14 7l44 146q76 26 145 26q75 0 119.5 -34.5t44.5 -105.5q0 -50 -24 -90.5t-61.5 -72t-78 -63t-80 -80t-60.5 -107.5zM112 -5
q-27 0 -45.5 19t-18.5 45q0 28 18.5 46.5t45.5 18.5q26 0 45 -19t19 -46q0 -26 -19 -45t-45 -19z" />
    <glyph glyph-name="A" unicode="A" horiz-adv-x="567" 
d="M110 0h-138v2q33 32 55.5 66.5t51.5 95.5l272 575h39l78 -589q14 -97 48 -148v-2h-172v2q34 45 20 153l-14 111h-180l-31 -66q-63 -133 -29 -198v-2zM188 305h157l-32 264z" />
    <glyph glyph-name="B" unicode="B" horiz-adv-x="567" 
d="M239 0h-217v2q26 42 37.5 76t21.5 93l69 390q11 59 10.5 94t-13.5 74v2q47 0 111.5 2t88.5 2q63 0 106.5 -13t64.5 -36.5t29 -48t8 -54.5q1 -79 -44 -132.5t-132 -65.5q68 -11 107.5 -51.5t40.5 -108.5q1 -100 -71 -162.5t-217 -62.5zM275 692l-51 -292h74
q45 0 77.5 16.5t50 44.5t25 59.5t7.5 66.5q-1 54 -29 82t-97 28q-34 0 -57 -5zM163 50q27 -11 77 -11q89 0 135 51t45 140q0 62 -28 96.5t-100 34.5h-75z" />
    <glyph glyph-name="C" unicode="C" horiz-adv-x="663" 
d="M605 222l-49 -174q-24 -19 -92 -41t-136 -22q-130 0 -201 85.5t-71 222.5q0 122 53 226t147.5 166t207.5 62q103 0 179 -37l6 -182l-14 -2q-41 98 -85.5 139.5t-106.5 41.5q-86 0 -151.5 -66.5t-96.5 -166t-31 -211.5q0 -111 45 -174.5t121 -63.5q37 0 71.5 15.5
t69.5 48.5t58.5 61t60.5 76z" />
    <glyph glyph-name="D" unicode="D" horiz-adv-x="663" 
d="M20 0v2q25 36 36 65t18 78l80 441q8 51 6.5 80t-15.5 64v2q56 0 111 2t107 2q286 0 286 -289q0 -192 -112.5 -319.5t-294.5 -127.5h-222zM239 38q62 1 113 25t86 63t58.5 92t34 112.5t10.5 124.5q0 126 -47.5 184.5t-147.5 58.5h-72l-115 -662z" />
    <glyph glyph-name="E" unicode="E" horiz-adv-x="558" 
d="M21 0v2q43 81 56 155l75 418q15 76 -4 155v2h383l6 -178l-14 -4q-9 17 -22 45t-20 40.5t-16.5 28t-18.5 21.5t-20 6l-149 6l-54 -309h72q9 0 18 3t18 10.5t15.5 13.5t15.5 18.5t13.5 18.5t13.5 19.5l11 16.5h19l-41 -236h-18q-1 3 -5.5 17t-6.5 19.5t-7 17.5t-9.5 17.5
t-10.5 12.5t-14 10t-17 3h-74l-56 -315l153 6q32 1 64 24t55.5 50t60.5 76q7 10 11 15l15 -8l-71 -197h-427z" />
    <glyph glyph-name="F" unicode="F" horiz-adv-x="531" 
d="M185 -6v-2h-165v2q26 41 38 74t22 91l70 399q10 59 9 91t-13 73v2h405l6 -170l-15 -4q-9 17 -22.5 44t-20 39t-16 26t-18 19.5t-19.5 5.5l-170 6l-53 -295h85q9 0 18 3t18 10.5t15.5 13.5t15.5 18.5t13.5 18.5t13.5 19.5l11 16.5h19l-41 -236h-18q-1 4 -5.5 17.5
l-6.5 19.5t-7 17.5t-9.5 17.5t-10.5 13t-14 10t-17 3h-87l-35 -198q-10 -59 -9 -91t13 -74z" />
    <glyph glyph-name="G" unicode="G" horiz-adv-x="684" 
d="M659 328q-26 -42 -37.5 -75.5t-21.5 -92.5l-11 -70q-2 -1 -21 -15.5t-28 -20t-30.5 -19t-38.5 -20t-40.5 -15t-49.5 -12t-53 -3.5q-131 0 -201.5 85.5t-70.5 222.5q0 122 53 226t147.5 166t207.5 62q103 0 179 -37l6 -182l-14 -2q-41 98 -85.5 139.5t-106.5 41.5
q-86 0 -151.5 -66.5t-96.5 -166t-31 -210.5q0 -114 42.5 -176.5t124.5 -62.5q88 0 136 56.5t46 160.5q0 42 -17 86v2h163v-2z" />
    <glyph glyph-name="H" unicode="H" horiz-adv-x="667" 
d="M22 0v2q26 41 37.5 74t21.5 91l68 398q10 59 9 91.5t-14 73.5v2h167v-2q-26 -42 -38 -74.5t-22 -90.5l-29 -168h277l28 168q10 58 9.5 91t-13.5 74v2h166v-2q-25 -41 -37 -73.5t-23 -91.5l-67 -398q-10 -59 -9 -91t13 -74v-2h-166v2q27 43 39 76t21 89l32 191h-276
l-33 -191q-9 -60 -8.5 -91.5t12.5 -73.5v-2h-165z" />
    <glyph glyph-name="I" unicode="I" horiz-adv-x="288" 
d="M20 0v2q26 41 38 74t22 91l70 398q10 59 9 91t-13 74v2h167v-2q-27 -41 -38.5 -73.5t-22.5 -91.5l-71 -398q-10 -59 -9 -91t13 -74v-2h-165z" />
    <glyph glyph-name="J" unicode="J" horiz-adv-x="410" 
d="M309 159q-30 -174 -184 -174q-54 0 -109 29l12 157l15 3q40 -149 95 -149q44 0 58 75l80 465q10 57 9 90.5t-14 74.5v2h167v-2q-26 -42 -38 -75t-22 -90z" />
    <glyph glyph-name="K" unicode="K" horiz-adv-x="600" 
d="M555 0h-142l-178 361l204 246q38 45 46.5 72t-7.5 51v2h164v-2q-56 -31 -93 -62.5t-77 -80.5l-147 -175l146 -292q16 -33 24 -47.5t23 -34t36 -36.5zM20 0v2q26 41 38 74t22 91l70 398q10 59 9 91t-13 74v2h167v-2q-27 -41 -38.5 -73.5t-22.5 -91.5l-71 -398
q-10 -59 -9 -91t13 -74v-2h-165z" />
    <glyph glyph-name="L" unicode="L" horiz-adv-x="542" 
d="M426 0h-404v2q26 42 37.5 73.5t21.5 91.5l70 398q10 59 9.5 91t-12.5 74v2h166v-2q-26 -40 -37.5 -72.5t-22.5 -92.5l-94 -532l126 6q50 2 93.5 43t106.5 126l15 -7z" />
    <glyph glyph-name="M" unicode="M" horiz-adv-x="817" 
d="M538 0v2q26 41 38 74t22 91l81 445l-312 -591h-41l-117 590l-74 -423q-11 -62 -6.5 -99.5t30.5 -86.5l-1 -2h-149v2q39 49 55 85.5t27 100.5l69 387q9 58 2.5 89.5t-37.5 65.5l1 2h157l112 -570l301 570h169v-2q-44 -34 -62 -66.5t-29 -95.5l-74 -401q-10 -59 -8.5 -91
t13.5 -74l-1 -2h-166z" />
    <glyph glyph-name="N" unicode="N" horiz-adv-x="665" 
d="M153 2v-2h-152v2q39 50 55.5 86t27.5 99l81 452q-1 48 -42 91v2h135l260 -571l67 384q11 63 7 99t-27 86v2h146v-2q-40 -50 -55.5 -86t-26.5 -99l-97 -545l-49 -3l-282 613l-73 -423q-11 -62 -6.5 -99t31.5 -86z" />
    <glyph glyph-name="O" unicode="O" horiz-adv-x="718" 
d="M705 446q0 -117 -52.5 -223.5t-142.5 -172t-192 -65.5q-117 0 -189.5 84t-72.5 217q0 117 52.5 223.5t142.5 172t192 65.5q118 0 190 -83.5t72 -217.5zM164 245q0 -103 40.5 -161.5t118.5 -58.5q82 0 146.5 72.5t96 176.5t31.5 213q0 103 -40.5 161.5t-118.5 58.5
q-82 0 -146.5 -72.5t-96 -176.5t-31.5 -213z" />
    <glyph glyph-name="P" unicode="P" horiz-adv-x="543" 
d="M185 2v-2h-165v2q26 41 38 74t22 91l70 398q10 59 9 91t-13 74v2h203q113 0 164.5 -49.5t51.5 -130.5q0 -110 -79.5 -184.5t-210.5 -74.5h-72l-22 -126q-10 -59 -9 -91t13 -74zM335 693q-42 0 -60 -2l-65 -359h66q50 0 87.5 20.5t58 55t30.5 73.5t10 83q0 75 -31 102
t-96 27z" />
    <glyph glyph-name="Q" unicode="Q" horiz-adv-x="718" 
d="M705 446q0 -113 -49.5 -217t-134 -170t-182.5 -73q74 -66 184 -66q73 0 132 24l-34 -84q-36 -21 -98 -21q-163 0 -239 148q-104 13 -166 94.5t-62 204.5q0 117 52.5 223.5t142.5 172t192 65.5q118 0 190 -83.5t72 -217.5zM164 245q0 -103 40.5 -161.5t118.5 -58.5
q82 0 146.5 72.5t96 176.5t31.5 213q0 103 -40.5 161.5t-118.5 58.5q-82 0 -146.5 -72.5t-96 -176.5t-31.5 -213z" />
    <glyph glyph-name="R" unicode="R" horiz-adv-x="586" 
d="M186 2v-2h-165v2q25 41 37 75t23 95l69 390q11 58 10 92.5t-14 75.5v2h217q202 0 202 -157q0 -74 -43 -132.5t-121 -84.5l60 -226q14 -52 32 -79.5t48 -46.5v-6h-152l-89 342h-87l-31 -171q-10 -61 -9 -93.5t13 -75.5zM337 694q-41 0 -62 -1l-56 -312h83q74 0 114.5 60
t40.5 140q0 60 -28.5 86.5t-91.5 26.5z" />
    <glyph glyph-name="S" unicode="S" horiz-adv-x="501" 
d="M477 723l7 -168l-16 -2q-38 85 -73 119t-81 34q-47 0 -77 -31t-29 -80q0 -47 27 -83.5t79 -83.5q9 -7 13 -11q38 -36 59.5 -60t41.5 -68.5t20 -93.5q0 -100 -65.5 -155t-172.5 -55q-98 0 -171 43l-7 186l15 3q37 -100 82 -146t105 -46q59 0 92.5 38t33.5 95q0 24 -7.5 47
t-15 37t-28.5 37t-29 30.5t-36 32.5q-32 30 -44.5 43t-34.5 41t-30.5 57t-8.5 65q0 93 63.5 146t157.5 53q75 0 130 -24z" />
    <glyph glyph-name="T" unicode="T" horiz-adv-x="645" 
d="M362 2v-2h-167v2q26 43 38.5 76t21.5 89l94 529l-85 -3q-19 -1 -51 -31t-55.5 -59.5t-63.5 -82.5l-15 7l69 205h514l-2 -209l-14 -3q-61 171 -101 172l-95 4l-91 -529q-11 -58 -10.5 -91t13.5 -74z" />
    <glyph glyph-name="U" unicode="U" horiz-adv-x="624" 
d="M285 -15q-110 0 -169.5 64.5t-35.5 190.5l59 325q10 59 9.5 91.5t-13.5 73.5v2h166v-2q-42 -67 -60 -165l-58 -322q-19 -110 15 -162.5t108 -52.5q149 0 190 205l56 312q12 65 5.5 100t-38.5 85v2h158v-2q-38 -49 -53.5 -84.5t-26.5 -100.5l-58 -312q-10 -53 -27 -94.5
t-46 -77.5t-75 -56t-106 -20z" />
    <glyph glyph-name="V" unicode="V" horiz-adv-x="552" 
d="M89 732h177v-2q-38 -60 -25 -162l50 -404l176 370q65 135 31 196v2h137v-2q-33 -31 -54.5 -65t-51.5 -96l-277 -577v2l-1 -2h-39l-76 576q-14 109 -47 162v2z" />
    <glyph glyph-name="W" unicode="W" horiz-adv-x="861" 
d="M90 732h176v-2q-33 -50 -24 -162l30 -400l190 386l-1 14q-10 104 -46 162v2h175v-2q-36 -44 -24 -162l37 -399l175 365q66 136 31 196v2h137v-2q-55 -52 -107 -161l-278 -577h-40l-51 489l-241 -489h-40l-52 576q-10 102 -47 162v2z" />
    <glyph glyph-name="X" unicode="X" horiz-adv-x="584" 
d="M534 0h-191v2q15 17 18 51.5t-10 76.5l-71 204l-104 -160q-72 -110 -35 -172v-2h-164v2q41 28 68.5 59.5t66.5 90.5l152 230l-74 214q-19 54 -35.5 84t-41.5 50v2h193v-2q-15 -17 -17.5 -52t10.5 -76l56 -161l82 117q40 56 48 99.5t-6 72.5v2h163v-2q-41 -28 -70.5 -60.5
t-70.5 -89.5l-131 -184l90 -259q34 -101 74 -135v-2z" />
    <glyph glyph-name="Y" unicode="Y" horiz-adv-x="532" 
d="M141 0v2q26 39 38 68.5t21 79.5l32 185l-71 260q-31 98 -68 135v2h191v-2q-17 -16 -21.5 -51.5t6.5 -76.5l57 -215l98 160q78 119 42 183v2h145v-2q-39 -35 -65.5 -68.5t-63.5 -93.5l-149 -241l-30 -177q-9 -50 -7.5 -80t17.5 -68l-1 -2h-171z" />
    <glyph glyph-name="Z" unicode="Z" horiz-adv-x="557" 
d="M-8 0v11l475 686l-111 -4q-41 -1 -74 -12.5t-62 -37.5t-47.5 -47.5t-49.5 -63.5l-18 7l73 193h419v-11l-473 -686l130 4q79 2 132 45.5t113 132.5l19 -7l-80 -210h-446z" />
    <glyph glyph-name="a" unicode="a" horiz-adv-x="515" 
d="M417 145q-15 -51 -10.5 -83t36.5 -53v-2l-153 -17l52 204q-47 -97 -98 -153t-112 -56q-51 0 -80.5 36t-29.5 107q0 92 45 182.5t127 150.5t176 60q51 0 95 -17l35 17h15zM118 145q0 -89 52 -89q85 0 202 275l30 111q-12 39 -58 39q-56 0 -110 -55t-85 -133t-31 -148z" />
    <glyph glyph-name="b" unicode="b" horiz-adv-x="521" 
d="M192 -15q-79 0 -125 54t-23 162l83 399q22 102 -24 154v2l163 50l-105 -484q99 199 216 199q56 0 89 -41.5t33 -121.5q0 -146 -93.5 -259.5t-213.5 -113.5zM132 165q-31 -140 61 -140q57 0 107 55.5t76 131.5t26 145q0 93 -59 93q-86 0 -199 -229z" />
    <glyph glyph-name="c" unicode="c" horiz-adv-x="444" 
d="M379 163l16 -6q-24 -79 -75 -125.5t-122 -46.5q-80 0 -127 57t-47 149q0 130 86.5 230t205.5 100q38 0 70.5 -9.5t42.5 -17.5l-4 -128l-12 -2q-13 27 -20 40t-22.5 35t-35 32t-43.5 10q-64 0 -115.5 -70.5t-51.5 -181.5q0 -83 31.5 -124.5t88.5 -41.5q85 0 134 100z" />
    <glyph glyph-name="d" unicode="d" horiz-adv-x="544" 
d="M447 145q-14 -52 -10 -83.5t37 -52.5v-2l-153 -17l48 216q-111 -221 -239 -221q-49 0 -78.5 37.5t-29.5 111.5q0 91 43.5 179t127 148t185.5 60q26 0 53 -5l18 85q12 47 8.5 88.5t-32.5 64.5v2l161 50zM119 146q0 -90 55 -90q49 0 105 72t112 203l18 81q10 69 -62 69
q-62 0 -116 -55t-83 -132t-29 -148z" />
    <glyph glyph-name="e" unicode="e" horiz-adv-x="442" 
d="M129 212q0 -81 30 -117.5t78 -36.5q75 0 126 82l15 -6q-28 -72 -78 -110.5t-114 -38.5q-75 0 -118.5 53.5t-43.5 141.5q0 134 91.5 237.5t214.5 103.5q112 0 112 -91q0 -71 -74 -119t-236 -53q-3 -22 -3 -46zM313 481q-59 0 -109.5 -54t-67.5 -140q226 30 226 145
q0 49 -49 49z" />
    <glyph glyph-name="f" unicode="f" horiz-adv-x="327" 
d="M15 -143l131 610h-69l8 39h70l10 47q26 123 87 188t140 65q48 0 84 -16l-7 -125l-10 -2q-27 58 -44.5 81t-42.5 23q-69 0 -106 -176l-18 -85h115l-9 -39h-115l-130 -610h-94z" />
    <glyph glyph-name="g" unicode="g" horiz-adv-x="500" 
d="M43 88q0 37 27 63.5t67 39.5q-70 39 -70 126q0 82 67 143t153 61q44 0 77 -19l166 36l1 -1l-20 -96h-4l-102 25q30 -40 29 -91q1 -82 -66 -143t-154 -61q-23 0 -49 7q-42 -20 -42 -47q0 -36 107 -56q9 -2 14 -3q85 -16 128.5 -42.5t43.5 -82.5q0 -74 -74.5 -121.5
t-197.5 -47.5q-92 0 -150 27t-58 78q0 47 47.5 80t116.5 45q-57 28 -57 80zM214 209q53 0 91 58.5t37 137.5q2 78 -55 78q-52 0 -90 -59t-38 -138q0 -77 55 -77zM21 -103q0 -37 37 -58t111 -21q80 0 127 24.5t47 61.5q0 17 -11.5 30t-28 20t-41.5 13t-47 10q-5 1 -8 1
q-41 7 -71 16q-55 -12 -85 -37.5t-30 -59.5z" />
    <glyph glyph-name="h" unicode="h" horiz-adv-x="550" 
d="M9 0v2q31 59 60 195l85 404q13 48 9 88.5t-32 64.5v2l162 50l-110 -504q107 219 229 219q51 0 75.5 -43t7.5 -120l-44 -211q-14 -55 -9.5 -86.5t34.5 -52.5v-2l-156 -16l79 362q10 36 0.5 60.5t-38.5 24.5q-91 0 -203 -267l-3 -16q-20 -97 -5 -152v-2h-141z" />
    <glyph glyph-name="i" unicode="i" 
d="M195 617q-25 0 -43.5 17.5t-19.5 42.5q0 25 18.5 43t43.5 18q26 0 44.5 -18t18.5 -43t-18.5 -42.5t-43.5 -17.5zM8 0v2q22 34 34 76t27 119l27 123q25 113 -24 154v2l161 50l-69 -338q-28 -130 -14 -186v-2h-142z" />
    <glyph glyph-name="j" unicode="j" horiz-adv-x="234" 
d="M187 617q-26 0 -44.5 17.5t-19.5 42.5q0 25 18.5 43t44.5 18q25 0 43.5 -18t18.5 -43q1 -24 -17.5 -42t-43.5 -18zM-95 -216q40 22 63.5 54t35.5 87l84 395q24 115 -26 154v2l162 50l-111 -536q-21 -98 -76.5 -153.5t-127.5 -64.5z" />
    <glyph glyph-name="k" unicode="k" horiz-adv-x="492" 
d="M9 0v2q33 63 60 195l84 404q12 47 8.5 88.5t-32.5 64.5v2l164 50l-136 -652q-21 -98 -7 -152v-2h-141zM460 0h-138l-129 262l148 155q54 58 18 86v3h174v-3q-79 -26 -161 -111l-91 -93l100 -203q30 -62 79 -94v-2z" />
    <glyph glyph-name="l" unicode="l" horiz-adv-x="246" 
d="M150 0h-141v2q31 58 60 195l85 404q26 113 -23 153v2l162 50l-132 -618q-15 -74 -17.5 -113t6.5 -73v-2z" />
    <glyph glyph-name="m" unicode="m" horiz-adv-x="811" 
d="M9 0v2q30 57 60 195l27 123q25 113 -24 154v2l158 50l-48 -228q104 223 222 223q47 0 65 -42.5t2 -123.5l-11 -54q105 220 222 220q52 0 72 -42.5t3 -120.5l-47 -213q-14 -55 -9 -84t36 -50v-2l-155 -19l79 362q22 85 -29 85q-44 0 -91 -66t-104 -202q-10 -55 -12.5 -73
t-2.5 -44t7 -50v-2h-140v2q35 67 58 190l34 160q20 85 -29 85q-43 0 -89.5 -66t-103.5 -201l-3 -16q-20 -96 -6 -152v-2h-141z" />
    <glyph glyph-name="n" unicode="n" horiz-adv-x="552" 
d="M9 0v2q30 56 60 195l27 123q25 113 -24 154v2l159 50l-48 -226q108 221 230 221q52 0 76 -43t8 -120l-44 -211q-14 -56 -10.5 -87.5t35.5 -51.5v-2l-157 -16l80 362q10 36 0.5 60.5t-38.5 24.5q-94 0 -202 -264l-4 -19q-20 -99 -7 -152v-2h-141z" />
    <glyph glyph-name="o" unicode="o" horiz-adv-x="500" 
d="M307 521q79 0 123.5 -52.5t44.5 -141.5q0 -134 -87.5 -238t-193.5 -104q-79 0 -123.5 52.5t-44.5 140.5q0 134 87.5 238.5t193.5 104.5zM304 481q-71 0 -126 -103t-55 -238q0 -115 74 -115q71 0 126 103t55 237q0 116 -74 116z" />
    <glyph glyph-name="p" unicode="p" horiz-adv-x="537" 
d="M15 -25l73 345q23 114 -24 154v2l159 50l-45 -203q99 198 215 198q56 0 89 -41.5t33 -121.5q0 -95 -43 -181.5t-114 -139t-150 -52.5q-52 0 -90 24l-13 -67q-22 -109 -9 -163v-2h-141v2q33 58 60 196zM359 450q-86 0 -198 -228l-12 -60q-25 -137 60 -137q57 0 107 55.5
t76 131.5t26 145q0 93 -59 93z" />
    <glyph glyph-name="q" unicode="q" horiz-adv-x="537" 
d="M413 -25q-16 -78 -19.5 -112t2.5 -84v-2h-144v2q37 64 68 208l44 208q-109 -210 -234 -210q-49 0 -78.5 37.5t-29.5 111.5q0 91 43.5 179t127 148t185.5 60q66 0 114 -24l28 24h7zM119 146q0 -90 55 -90q99 0 219 277l14 70q17 78 -60 78q-62 0 -116 -54.5t-83 -131
t-29 -149.5z" />
    <glyph glyph-name="r" unicode="r" horiz-adv-x="367" 
d="M9 0v2q33 63 60 195l27 123q25 113 -23 154v2l156 50l-54 -254q113 249 230 249l-46 -127h-4q-12 6 -25 6q-41 0 -76 -54t-97 -192q-21 -95 -7 -152v-2h-141z" />
    <glyph glyph-name="s" unicode="s" horiz-adv-x="391" 
d="M359 503l3 -125l-12 -2q-31 57 -60.5 81.5t-67.5 24.5q-35 0 -53.5 -17.5t-18.5 -45.5q0 -23 14 -43.5t35.5 -36t46 -36t46 -40.5t35.5 -51.5t14 -68.5q0 -73 -50.5 -115.5t-133.5 -42.5q-77 0 -136 32l-8 151l12 2q72 -146 163 -146q36 0 56 21t20 54q0 31 -19.5 57.5
t-46.5 47.5t-54.5 43.5t-47 55.5t-19.5 74q0 69 47.5 106.5t122.5 37.5q56 0 112 -18z" />
    <glyph glyph-name="t" unicode="t" horiz-adv-x="356" 
d="M299 117q-74 -132 -168 -132q-43 0 -64 32.5t-5 106.5l75 343h-59l3 17l171 129h12l-23 -107h130l-9 -39h-129l-74 -344q-14 -67 26 -67q41 0 96 75z" />
    <glyph glyph-name="u" unicode="u" horiz-adv-x="530" 
d="M290 -11l43 169q-98 -173 -210 -173q-52 0 -76.5 41t-4.5 115l59 221q16 49 12 85t-42 56v3h160l-94 -360q-10 -39 0 -63t38 -24q48 0 103.5 74t100.5 203l7 26q16 49 12 85t-42 56v3h160l-95 -362q-16 -54 -11.5 -84.5t36.5 -51.5v-2z" />
    <glyph glyph-name="v" unicode="v" horiz-adv-x="432" 
d="M480 503l-337 -512h-36l-23 372q-4 67 -13 91.5t-38 48.5v3h139l21 -367l104 159q57 87 64 134.5t-32 70.5v3h151v-3z" />
    <glyph glyph-name="w" unicode="w" horiz-adv-x="666" 
d="M707 503l-309 -512h-37l-15 319l-199 -319h-38l-15 372q-3 66 -12.5 91t-40.5 49v3h142l13 -360l146 235q-4 52 -15 75t-40 47v3h142l15 -365l93 157q49 83 53.5 132.5t-29.5 72.5v3h146v-3z" />
    <glyph glyph-name="x" unicode="x" horiz-adv-x="480" 
d="M99 128l98 116l-56 138q-34 83 -77 121v3h171v-3q-30 -21 5 -110l33 -82l43 53q33 41 48 67t14.5 44t-18.5 28v3h149v-3q-45 -29 -68.5 -51.5t-65.5 -74.5l-85 -107l59 -146q33 -82 77 -122v-2h-171v2q12 8 13 33t-18 78l-38 94l-55 -65q-85 -103 -48 -140v-2h-149v2
q31 18 55.5 38.5t37 34t46.5 53.5z" />
    <glyph glyph-name="y" unicode="y" horiz-adv-x="439" 
d="M-84 -221l22 100q133 -9 208 114l-48 371q-8 68 -18.5 92t-41.5 47v3h140l45 -378l97 170q51 90 55.5 134t-38.5 71v3h149v-3l-299 -519q-36 -62 -72 -103.5t-71 -61.5t-63 -28t-65 -12z" />
    <glyph glyph-name="z" unicode="z" horiz-adv-x="452" 
d="M414 147l-65 -147h-371l1 17l349 452l-99 -4q-35 -1 -69.5 -23t-91.5 -77l-9 6l61 135h335v-18l-350 -452l117 3q75 1 183 115z" />
    <glyph glyph-name="quoteleft" unicode="&#x2018;" horiz-adv-x="238" 
d="M277 737l11 -16q-34 -23 -56 -51t-22 -48q0 -25 26 -66v-2l-87 -59q-33 26 -33 65q0 49 49 96.5t112 80.5z" />
    <glyph glyph-name="quoteright" unicode="&#x2019;" horiz-adv-x="238" 
d="M98 495l-11 16q34 23 56 51t22 48q0 25 -26 66v2l87 59q33 -26 33 -65q0 -49 -49 -96.5t-112 -80.5z" />
    <glyph glyph-name="quotedblleft" unicode="&#x201c;" horiz-adv-x="403" 
d="M442 737l11 -16q-34 -23 -56 -51t-22 -48q0 -25 26 -66v-2l-87 -59q-33 26 -33 65q0 49 49 96.5t112 80.5zM277 737l11 -16q-34 -23 -56 -51t-22 -48q0 -25 26 -66v-2l-87 -59q-33 26 -33 65q0 49 49 96.5t112 80.5z" />
    <glyph glyph-name="quotedblright" unicode="&#x201d;" horiz-adv-x="403" 
d="M98 495l-11 16q34 23 56 51t22 48q0 25 -26 66v2l87 59q33 -26 33 -65q0 -49 -49 -96.5t-112 -80.5zM263 495l-11 16q34 23 56 51t22 48q0 25 -26 66v2l87 59q33 -26 33 -65q0 -49 -49 -96.5t-112 -80.5z" />
    </font>
</defs>
</svg>
